<?xml version="1.0" standalone="no"?>
<!DOCTYPE svg PUBLIC "-//W3C//DTD SVG 1.1//EN" "http://www.w3.org/Graphics/SVG/1.1/DTD/svg11.dtd" >
<svg xmlns="http://www.w3.org/2000/svg" xmlns:xlink="http://www.w3.org/1999/xlink" version="1.1">
<metadata>
Created by FontForge 20161116 at Tue Jun 27 14:40:03 2017
 By Jimmy Wärting
Generated in 2013 by FontLab Studio. Copyright info pending.
</metadata>
<defs>
<font id="CircularStd-Black" horiz-adv-x="587" >
  <font-face 
    font-family="CircularStd"
    font-weight="900"
    font-stretch="normal"
    units-per-em="1000"
    panose-1="2 11 10 4 2 1 1 1 1 2"
    ascent="809"
    descent="-191"
    x-height="497"
    cap-height="709"
    bbox="-60 -268 1578 1017"
    underline-thickness="80"
    underline-position="-195"
    stemh="131"
    stemv="152"
    unicode-range="U+000D-FEFF"
  />
<missing-glyph horiz-adv-x="595" 
d="M67 0v709h461v-709h-461zM191 124h213v461h-213v-461z" />
    <glyph glyph-name="f_f" unicode="ff" horiz-adv-x="690" 
d="M677 369h-108v-369h-152v369h-175v-369h-152v369h-79v128h79v43c0 114 69 192 190 192c25 0 58 -4 72 -11v-124c-8 2 -22 5 -45 5c-26 0 -65 -12 -65 -62v-43h175v43c0 114 69 192 189 192c26 0 59 -3 73 -10v-125c-8 2 -23 5 -45 5c-27 0 -65 -12 -65 -62v-43h108v-128z
" />
    <glyph glyph-name="f_f_i" unicode="ffi" horiz-adv-x="973" 
d="M280 732c25 0 58 -5 72 -12v-123c-8 2 -22 5 -45 5c-29 0 -65 -12 -65 -62v-43h175v43c0 114 69 192 189 192c26 0 59 -4 73 -11v-124c-8 2 -23 5 -45 5c-27 0 -65 -12 -65 -62v-43h339v-497h-153v369h-186v-369h-152v369h-175v-369h-152v369h-79v128h79v43
c0 114 69 192 190 192zM742 649c0 50 40 89 89 89c50 0 89 -39 89 -89c0 -49 -39 -89 -89 -89c-49 0 -89 40 -89 89z" />
    <glyph glyph-name="f_f_l" unicode="ffl" horiz-adv-x="975" 
d="M307 602c-26 0 -65 -12 -65 -62v-43h175v43c0 114 69 192 189 192c26 0 59 -4 73 -11v-124c-8 2 -23 5 -45 5c-27 0 -65 -12 -65 -62v-43h187v227h152v-724h-152v369h-187v-369h-152v369h-175v-369h-152v369h-79v128h79v43c0 114 69 192 190 192c25 0 58 -4 72 -11v-124
c-8 2 -22 5 -45 5z" />
    <glyph glyph-name="f_i" unicode="fi" horiz-adv-x="643" 
d="M425 369h-183v-369h-152v369h-79v128h79v43c0 114 69 192 190 192c25 0 56 -4 70 -11v-124c-7 2 -21 5 -43 5c-26 0 -65 -12 -65 -62v-43h335v-497h-152v369zM412 649c0 50 40 89 88 89c50 0 90 -39 90 -89c0 -49 -40 -89 -90 -89c-48 0 -88 40 -88 89z" />
    <glyph glyph-name="f_l" unicode="fl" horiz-adv-x="644" 
d="M307 602c-26 0 -65 -12 -65 -62v-43h182v227h153v-724h-153v369h-182v-369h-152v369h-79v128h79v43c0 114 69 192 190 192c25 0 56 -4 70 -11v-124c-7 2 -21 5 -43 5z" />
    <glyph glyph-name=".notdef" horiz-adv-x="595" 
d="M67 0v709h461v-709h-461zM191 124h213v461h-213v-461z" />
    <glyph glyph-name=".null" horiz-adv-x="0" 
 />
    <glyph glyph-name=".null" horiz-adv-x="0" 
 />
    <glyph glyph-name="uni000D" unicode="&#xd;" horiz-adv-x="246" 
 />
    <glyph glyph-name="space" unicode=" " horiz-adv-x="246" 
 />
    <glyph glyph-name="exclam" unicode="!" horiz-adv-x="345" 
d="M264 709l-35 -487h-112l-35 487h182zM86 76c0 48 38 87 86 87s87 -39 87 -87c0 -47 -39 -86 -87 -86s-86 39 -86 86z" />
    <glyph glyph-name="quotedbl" unicode="&#x22;" horiz-adv-x="416" 
d="M31 577c0 47 35 83 82 83c46 0 81 -36 81 -83c0 -9 -2 -23 -4 -30l-50 -181h-54l-50 181c-1 6 -5 19 -5 30zM222 577c0 47 35 83 82 83c46 0 81 -36 81 -83c0 -9 -2 -23 -4 -30l-50 -181h-54l-50 181c-1 6 -5 19 -5 30z" />
    <glyph glyph-name="numbersign" unicode="#" horiz-adv-x="744" 
d="M86 392v105h144l33 152h114l-33 -152h126l33 152h115l-33 -152h123v-105h-145l-28 -130h122v-106h-145l-33 -156h-115l33 156h-126l-33 -156h-114l33 156h-120v106h143l28 130h-122zM322 392l-28 -130h126l28 130h-126z" />
    <glyph glyph-name="dollar" unicode="$" horiz-adv-x="596" 
d="M368 -117h-115v107c-141 23 -205 127 -212 209l138 31c5 -58 45 -110 131 -110c50 0 86 24 86 63c0 29 -22 48 -62 57l-89 21c-112 27 -181 95 -181 190c0 112 84 189 189 207v108h115v-111c110 -24 160 -103 174 -171l-139 -37c-6 31 -23 83 -102 83
c-56 0 -84 -33 -84 -65c0 -27 20 -48 59 -57l87 -19c134 -30 187 -108 187 -198c0 -92 -66 -178 -182 -199v-109z" />
    <glyph glyph-name="percent" unicode="%" horiz-adv-x="872" 
d="M147 495c0 -40 26 -66 61 -66s60 27 60 66c0 38 -25 64 -60 64s-61 -26 -61 -64zM39 495c0 93 77 166 169 166s169 -73 169 -166c0 -96 -77 -166 -170 -166s-168 73 -168 166zM604 153c0 -40 26 -66 61 -66s60 27 60 66c0 38 -25 64 -60 64s-61 -26 -61 -64zM496 153
c0 93 77 166 169 166s169 -73 169 -166c0 -96 -77 -166 -170 -166s-168 73 -168 166zM274 0h-128l454 649h129z" />
    <glyph glyph-name="ampersand" unicode="&#x26;" horiz-adv-x="727" 
d="M535 0l-64 69c-49 -50 -111 -83 -186 -83c-140 0 -219 97 -219 195c0 87 45 138 121 193l-10 11c-34 37 -74 88 -74 152c0 121 102 188 201 188c117 0 203 -75 203 -182c0 -71 -48 -126 -100 -164l-23 -17l95 -100l189 193v-186l-100 -101l159 -168h-192zM289 116
c35 0 65 17 94 47l-110 118l-5 -4c-33 -24 -55 -49 -55 -88c0 -37 30 -73 76 -73zM244 542c0 -28 19 -51 36 -69l17 -18l28 20c29 21 41 45 41 68c0 34 -27 60 -62 60c-30 0 -60 -19 -60 -61z" />
    <glyph glyph-name="quotesingle" unicode="'" horiz-adv-x="225" 
d="M31 577c0 47 35 83 82 83c46 0 81 -36 81 -83c0 -9 -2 -23 -4 -30l-50 -181h-54l-50 181c-1 6 -5 19 -5 30z" />
    <glyph glyph-name="parenleft" unicode="(" horiz-adv-x="343" 
d="M37 324c0 234 97 390 220 507l86 -81c-109 -114 -179 -243 -179 -426c0 -182 70 -312 179 -426l-86 -81c-123 118 -220 273 -220 507z" />
    <glyph glyph-name="parenright" unicode=")" horiz-adv-x="343" 
d="M306 324c0 -234 -97 -389 -219 -507l-87 81c109 114 180 244 180 426c0 183 -71 312 -180 426l87 81c122 -117 219 -273 219 -507z" />
    <glyph glyph-name="asterisk" unicode="*" horiz-adv-x="463" 
d="M291 709v-123l114 37l38 -110l-115 -38l70 -97l-94 -69l-73 98l-72 -98l-94 69l70 97l-115 38l37 110l114 -37v123h120z" />
    <glyph glyph-name="plus" unicode="+" horiz-adv-x="599" 
d="M46 360h190v195h128v-195h189v-124h-189v-195h-128v195h-190v124z" />
    <glyph glyph-name="comma" unicode="," horiz-adv-x="321" 
d="M57 88c0 53 43 93 100 93c70 0 108 -59 108 -125c0 -155 -110 -221 -190 -230v71c43 8 98 48 100 108c-5 -4 -16 -7 -28 -7c-55 0 -90 40 -90 90z" />
    <glyph glyph-name="hyphen" unicode="-" horiz-adv-x="390" 
d="M345 233h-300v137h300v-137z" />
    <glyph glyph-name="period" unicode="." horiz-adv-x="327" 
d="M61 94c0 56 46 102 102 102s103 -46 103 -102c0 -55 -47 -103 -103 -103s-102 48 -102 103z" />
    <glyph glyph-name="slash" unicode="/" horiz-adv-x="495" 
d="M495 723l-360 -737h-135l359 737h136z" />
    <glyph glyph-name="zero" unicode="0" horiz-adv-x="628" 
d="M195 324c0 -52 6 -103 24 -141c18 -36 47 -60 95 -60c49 0 77 24 95 60c19 38 25 89 25 141s-6 103 -25 141c-18 36 -46 60 -95 60c-48 0 -77 -24 -95 -60c-18 -38 -24 -89 -24 -141zM37 324c0 80 12 161 57 229c43 65 115 111 220 111c106 0 178 -46 221 -111
c45 -68 57 -149 57 -229s-12 -161 -57 -229c-43 -64 -115 -111 -221 -111c-105 0 -177 47 -220 111c-45 68 -57 149 -57 229z" />
    <glyph glyph-name="one" unicode="1" horiz-adv-x="417" 
d="M346 0h-157v422h-155v105c97 1 166 56 177 122h135v-649z" />
    <glyph glyph-name="two" unicode="2" horiz-adv-x="551" 
d="M189 389l-148 1c-3 8 -6 34 -6 54c0 116 87 220 243 220c149 0 241 -97 241 -213c0 -84 -45 -153 -128 -202l-123 -73c-19 -12 -35 -25 -44 -44h300v-132h-493c0 119 34 217 153 286l106 62c51 30 71 57 71 100c0 41 -29 77 -87 77c-61 0 -91 -42 -91 -96
c0 -13 2 -27 6 -40z" />
    <glyph glyph-name="three" unicode="3" horiz-adv-x="547" 
d="M209 282l-68 104l160 131h-271v132h468v-122l-160 -124c100 -7 182 -87 182 -198c0 -115 -95 -219 -255 -219c-151 0 -247 97 -257 208l152 28c2 -57 43 -102 104 -102s97 41 97 89c0 62 -48 88 -94 88c-21 0 -43 -7 -58 -15z" />
    <glyph glyph-name="four" unicode="4" horiz-adv-x="608" 
d="M31 135v160l270 354h188v-382h104v-132h-104v-135h-158v135h-300zM331 267v214l-163 -214h163z" />
    <glyph glyph-name="five" unicode="5" horiz-adv-x="557" 
d="M26 185l146 30c3 -50 41 -97 105 -97c53 0 97 35 97 94c0 65 -49 96 -101 96c-44 0 -75 -22 -91 -42c-3 1 -138 44 -141 46l73 337h377v-132h-268l-26 -122c25 22 73 35 110 35c133 0 224 -77 224 -217c0 -121 -92 -229 -254 -229c-144 0 -243 99 -251 201z" />
    <glyph glyph-name="six" unicode="6" horiz-adv-x="584" 
d="M545 637l-42 -128c-30 11 -66 21 -102 21c-107 0 -191 -53 -210 -165c23 37 78 68 154 68c132 0 217 -90 217 -216c0 -133 -105 -232 -256 -232c-154 0 -269 112 -269 298c0 230 148 381 373 381c61 0 109 -12 135 -27zM203 211c0 -55 45 -94 101 -94s102 37 102 94
c0 58 -46 95 -102 95s-101 -37 -101 -95z" />
    <glyph glyph-name="seven" unicode="7" horiz-adv-x="514" 
d="M509 649v-126c-45 -39 -226 -203 -254 -523h-164c27 336 232 517 232 517h-318v132h504z" />
    <glyph glyph-name="eight" unicode="8" horiz-adv-x="573" 
d="M286 388c57 1 83 37 83 76c0 34 -29 70 -83 70s-83 -36 -83 -70c0 -39 27 -75 83 -76zM286 113c64 0 97 42 97 81c0 40 -30 83 -97 83c-66 0 -96 -43 -96 -83c0 -39 33 -81 96 -81zM286 -15c-147 0 -250 77 -250 191c0 67 42 131 110 158c-67 24 -98 91 -98 142
c0 109 98 188 238 188c141 0 239 -79 239 -188c0 -51 -32 -118 -99 -142c68 -27 111 -91 111 -158c0 -114 -103 -191 -251 -191z" />
    <glyph glyph-name="nine" unicode="9" horiz-adv-x="585" 
d="M51 19l34 127c21 -11 68 -26 114 -26c99 0 187 45 197 160c-27 -40 -83 -63 -141 -63c-125 0 -224 88 -224 218c0 132 102 229 254 229c148 0 263 -105 263 -312c0 -230 -123 -367 -346 -367c-58 0 -117 14 -151 34zM375 440c0 54 -42 92 -97 92s-97 -38 -97 -92
s42 -92 97 -92s97 39 97 92z" />
    <glyph glyph-name="colon" unicode=":" horiz-adv-x="322" 
d="M61 91c0 55 45 100 100 100c54 0 100 -45 100 -100c0 -53 -46 -100 -100 -100c-55 0 -100 47 -100 100zM61 406c0 55 45 100 100 100c54 0 100 -45 100 -100c0 -53 -46 -100 -100 -100c-55 0 -100 47 -100 100z" />
    <glyph glyph-name="semicolon" unicode=";" horiz-adv-x="323" 
d="M64 82c0 50 41 88 95 88c67 0 103 -56 103 -119c0 -147 -105 -210 -181 -218v67c41 8 93 46 95 103c-5 -4 -15 -7 -26 -7c-53 0 -86 38 -86 86zM61 406c0 55 45 100 100 100c54 0 100 -45 100 -100c0 -53 -46 -100 -100 -100c-55 0 -100 47 -100 100z" />
    <glyph glyph-name="less" unicode="&#x3c;" horiz-adv-x="505" 
d="M35 244v108l439 224v-138l-288 -137l288 -139v-140z" />
    <glyph glyph-name="equal" unicode="=" horiz-adv-x="607" 
d="M551 339h-495v122h495v-122zM551 138h-495v122h495v-122z" />
    <glyph glyph-name="greater" unicode="&#x3e;" horiz-adv-x="505" 
d="M470 353v-108l-439 -223v137l288 138l-288 139v140z" />
    <glyph glyph-name="question" unicode="?" horiz-adv-x="538" 
d="M313 222h-119c-3 14 -4 28 -4 44c0 47 19 98 76 141l51 38c27 20 36 44 36 70c0 39 -29 77 -89 77c-58 0 -92 -47 -92 -94c0 -23 2 -33 3 -37l-140 5c-3 14 -4 29 -4 42c0 117 87 216 233 216c162 0 243 -97 243 -197c0 -80 -37 -135 -97 -180l-38 -28
c-35 -26 -59 -52 -59 -97zM171 76c0 48 38 87 86 87s87 -39 87 -87c0 -47 -39 -86 -87 -86s-86 39 -86 86z" />
    <glyph glyph-name="at" unicode="@" horiz-adv-x="827" 
d="M583 141h-4c-55 0 -84 30 -92 58c-23 -40 -69 -60 -115 -60c-84 0 -151 71 -151 172c0 130 91 223 196 223c35 0 76 -17 91 -53l8 40h103l-52 -243c-1 -4 -1 -8 -1 -12c0 -15 11 -29 28 -29c47 0 94 63 94 158c0 138 -107 231 -255 231c-163 0 -286 -117 -286 -293
c0 -162 109 -284 293 -284c56 0 119 14 173 52l51 -73c-52 -46 -149 -76 -224 -76c-234 0 -404 151 -404 378c0 234 179 395 396 395c208 0 360 -141 360 -329c0 -153 -106 -253 -209 -255zM486 365c0 42 -21 70 -59 70c-55 0 -92 -51 -92 -115c0 -49 19 -83 63 -83
c49 0 87 53 88 128z" />
    <glyph glyph-name="A" unicode="A" horiz-adv-x="734" 
d="M552 0l-51 144h-274l-51 -144h-166l267 709h183l264 -709h-172zM366 533l-87 -245h172z" />
    <glyph glyph-name="B" unicode="B" horiz-adv-x="617" 
d="M77 709h265c140 0 221 -81 221 -190c0 -73 -46 -133 -104 -152c64 -15 126 -74 126 -166c0 -116 -88 -201 -222 -201h-286v709zM231 425h86c55 0 91 29 91 77c0 46 -31 76 -93 76h-84v-153zM231 129h99c61 0 98 32 98 83c0 49 -36 83 -98 83h-99v-166z" />
    <glyph glyph-name="C" unicode="C" horiz-adv-x="772" 
d="M404 -15c-204 0 -368 147 -368 368s168 371 366 371c213 0 307 -137 330 -239l-149 -47c-11 49 -56 132 -181 132c-95 0 -202 -68 -202 -217c0 -133 98 -210 204 -210c123 0 172 82 186 133l151 -43c-23 -98 -117 -248 -337 -248z" />
    <glyph glyph-name="D" unicode="D" horiz-adv-x="726" 
d="M235 149h92c109 0 198 63 198 205s-89 206 -198 206h-92v-411zM333 0h-256v709h257c213 0 356 -136 356 -355s-143 -354 -357 -354z" />
    <glyph glyph-name="E" unicode="E" horiz-adv-x="583" 
d="M527 0h-450v709h449v-149h-291v-135h264v-139h-264v-136h292v-150z" />
    <glyph glyph-name="F" unicode="F" horiz-adv-x="568" 
d="M236 0h-159v709h457v-150h-299v-150h263v-144h-262v-265z" />
    <glyph glyph-name="G" unicode="G" horiz-adv-x="788" 
d="M732 0h-128l-10 72c-31 -45 -98 -87 -199 -87c-197 0 -359 145 -359 369c0 223 169 370 369 370c203 0 297 -120 328 -219l-152 -53c-11 44 -58 124 -176 124c-96 0 -209 -64 -209 -222c0 -148 98 -225 213 -225c117 0 166 76 175 116h-213v134h361v-379z" />
    <glyph glyph-name="H" unicode="H" horiz-adv-x="753" 
d="M677 0h-159v282h-283v-282h-158v709h158v-278h283v278h159v-709z" />
    <glyph glyph-name="I" unicode="I" horiz-adv-x="313" 
d="M237 0h-160v709h160v-709z" />
    <glyph glyph-name="J" unicode="J" horiz-adv-x="568" 
d="M20 219v47l150 26v-65c0 -63 40 -92 86 -92c52 0 83 38 83 91v483h158v-487c0 -129 -99 -237 -240 -237c-140 0 -237 93 -237 234z" />
    <glyph glyph-name="K" unicode="K" horiz-adv-x="713" 
d="M506 0l-191 279l-80 -89v-190h-158v709h158v-298l259 298h208l-276 -307l277 -402h-197z" />
    <glyph glyph-name="L" unicode="L" horiz-adv-x="566" 
d="M541 0h-464v709h158v-558h306v-151z" />
    <glyph glyph-name="M" unicode="M" horiz-adv-x="957" 
d="M880 0h-155v470l-185 -470h-128l-185 464v-464h-150v709h206l195 -479l185 479h217v-709z" />
    <glyph glyph-name="N" unicode="N" horiz-adv-x="769" 
d="M693 0h-167l-292 466v-466h-157v709h192l266 -431v431h158v-709z" />
    <glyph glyph-name="O" unicode="O" horiz-adv-x="809" 
d="M200 355c0 -148 106 -214 205 -214c98 0 204 66 204 214s-106 215 -204 215c-99 0 -205 -67 -205 -215zM36 354c0 225 169 370 369 370c199 0 368 -145 368 -370c0 -224 -169 -369 -368 -369c-200 0 -369 145 -369 369z" />
    <glyph glyph-name="P" unicode="P" horiz-adv-x="613" 
d="M236 391h92c60 0 101 35 101 90c0 57 -41 91 -101 91h-92v-181zM344 255h-109v-255h-158v709h267c144 0 243 -95 243 -227c0 -134 -99 -227 -243 -227z" />
    <glyph glyph-name="Q" unicode="Q" horiz-adv-x="809" 
d="M36 354c0 225 169 370 369 370c199 0 368 -145 368 -370c0 -95 -30 -175 -80 -236l87 -95l-104 -88l-87 96c-54 -30 -118 -46 -184 -46c-200 0 -369 145 -369 369zM200 355c0 -148 106 -214 205 -214c24 0 48 4 72 12l-104 114l105 88l104 -114c17 31 27 68 27 114
c0 148 -106 215 -204 215c-99 0 -205 -67 -205 -215z" />
    <glyph glyph-name="R" unicode="R" horiz-adv-x="628" 
d="M418 0l-127 264h-56v-264h-158v709h281c140 0 230 -96 230 -222c0 -96 -53 -169 -140 -200l144 -287h-174zM235 400h93c65 0 100 36 100 86c0 53 -35 86 -100 86h-93v-172z" />
    <glyph glyph-name="S" unicode="S" horiz-adv-x="609" 
d="M565 535l-142 -40c-5 33 -32 89 -118 89c-59 0 -97 -37 -97 -76c0 -34 21 -59 70 -68l95 -18c135 -25 205 -112 205 -213c0 -111 -93 -224 -262 -224c-196 0 -280 127 -290 227l145 35c6 -65 50 -122 147 -122c62 0 100 30 100 74c0 36 -29 62 -76 71l-97 18
c-120 23 -193 103 -193 208c0 134 118 228 254 228c177 0 244 -106 259 -189z" />
    <glyph glyph-name="T" unicode="T" horiz-adv-x="633" 
d="M614 558h-219v-558h-158v558h-218v151h595v-151z" />
    <glyph glyph-name="U" unicode="U" horiz-adv-x="704" 
d="M352 -16c-156 0 -281 94 -281 272v453h158v-440c0 -86 48 -129 123 -129s123 43 123 129v440h158v-453c0 -178 -125 -272 -281 -272z" />
    <glyph glyph-name="V" unicode="V" horiz-adv-x="702" 
d="M355 210l169 499h168l-259 -709h-163l-260 709h174z" />
    <glyph glyph-name="W" unicode="W" horiz-adv-x="1039" 
d="M752 254l115 455h162l-193 -709h-163l-151 470l-152 -470h-166l-193 709h168l117 -454l147 454h162z" />
    <glyph glyph-name="X" unicode="X" horiz-adv-x="695" 
d="M674 709l-228 -356l230 -353h-192l-140 230l-139 -230h-186l229 355l-229 354h190l140 -230l140 230h185z" />
    <glyph glyph-name="Y" unicode="Y" horiz-adv-x="673" 
d="M256 296l-246 413h185l145 -263l147 263h176l-249 -413v-296h-158v296z" />
    <glyph glyph-name="Z" unicode="Z" horiz-adv-x="644" 
d="M599 0h-563v152l342 406h-327v151h544v-146l-350 -412h354v-151z" />
    <glyph glyph-name="bracketleft" unicode="[" horiz-adv-x="331" 
d="M326 -171h-249v994h249v-114h-123v-764h123v-116z" />
    <glyph glyph-name="backslash" unicode="\" horiz-adv-x="497" 
d="M360 -14l-360 737h138l359 -737h-137z" />
    <glyph glyph-name="bracketright" unicode="]" horiz-adv-x="331" 
d="M255 -171h-250v116h124v764h-124v114h250v-994z" />
    <glyph glyph-name="asciicircum" unicode="^" horiz-adv-x="535" 
d="M523 350h-138l-116 217l-117 -217h-140l199 359h112z" />
    <glyph glyph-name="underscore" unicode="_" horiz-adv-x="513" 
d="M512 -124h-510v124h510v-124z" />
    <glyph glyph-name="grave" unicode="`" horiz-adv-x="308" 
d="M163 556l-142 151h173l93 -151h-124z" />
    <glyph glyph-name="a" unicode="a" horiz-adv-x="546" 
d="M37 137c0 88 65 138 147 150l117 18c27 4 36 17 36 34c0 29 -25 54 -73 54c-53 0 -82 -36 -85 -73l-132 27c6 71 72 165 218 165c161 0 220 -90 220 -192v-243c0 -39 5 -72 6 -77h-137c-1 4 -5 22 -5 56c-26 -42 -74 -70 -140 -70c-109 0 -172 72 -172 151zM246 96
c45 0 91 22 91 99v22l-94 -15c-32 -5 -56 -20 -56 -55c0 -26 17 -51 59 -51z" />
    <glyph glyph-name="b" unicode="b" horiz-adv-x="622" 
d="M214 0h-147v724h149v-274c21 31 76 59 144 59c144 0 231 -110 231 -259c0 -152 -98 -261 -237 -261c-66 0 -117 29 -140 67v-56zM439 249c0 84 -53 123 -112 123s-113 -39 -113 -123c0 -82 54 -124 113 -124s112 41 112 124z" />
    <glyph glyph-name="c" unicode="c" horiz-adv-x="561" 
d="M296 372c-63 0 -114 -44 -114 -124c0 -79 53 -123 116 -123c59 0 92 37 103 74l134 -41c-22 -87 -104 -173 -237 -173c-148 0 -267 109 -267 263c0 155 116 264 262 264c137 0 217 -84 239 -173l-136 -41c-11 38 -41 74 -100 74z" />
    <glyph glyph-name="d" unicode="d" horiz-adv-x="626" 
d="M556 724v-635c0 -45 3 -78 4 -89h-146c-1 6 -4 28 -4 48c-23 -34 -73 -59 -133 -59c-140 0 -246 108 -246 261c0 148 100 259 241 259c85 0 122 -32 134 -51v266h150zM184 249c0 -82 53 -124 112 -124s112 42 112 124c0 83 -53 123 -112 123s-112 -40 -112 -123z" />
    <glyph glyph-name="e" unicode="e" horiz-adv-x="559" 
d="M182 308h199c-2 38 -28 84 -100 84c-64 0 -96 -47 -99 -84zM392 179l127 -36c-24 -86 -103 -158 -229 -158c-137 0 -259 98 -259 265c0 160 119 262 248 262c154 0 249 -95 249 -255c0 -21 -2 -44 -3 -47h-346c3 -56 54 -96 113 -96c55 0 86 26 100 65z" />
    <glyph glyph-name="f" unicode="f" horiz-adv-x="363" 
d="M350 369h-108v-369h-152v369h-79v128h79v43c0 114 69 192 190 192c31 0 58 -4 72 -11v-124c-8 2 -21 5 -45 5c-27 0 -65 -12 -65 -67v-38h108v-128z" />
    <glyph glyph-name="g" unicode="g" horiz-adv-x="607" 
d="M32 -28l134 38c10 -48 50 -83 107 -83c76 0 123 37 123 127v23c-18 -27 -61 -56 -133 -56c-132 0 -231 104 -231 242c0 131 95 243 231 243c81 0 124 -36 138 -62v53h145v-435c0 -143 -80 -267 -266 -267c-143 0 -234 88 -248 177zM291 153c62 0 106 42 106 110
s-49 110 -106 110s-107 -42 -107 -110s46 -110 107 -110z" />
    <glyph glyph-name="h" unicode="h" horiz-adv-x="595" 
d="M219 292v-292h-152v724h152v-259c31 31 83 45 127 45c130 0 188 -89 188 -198v-312h-152v286c0 49 -26 86 -81 86c-48 0 -79 -34 -82 -80z" />
    <glyph glyph-name="i" unicode="i" horiz-adv-x="285" 
d="M219 0h-152v497h152v-497zM54 649c0 49 40 89 88 89c50 0 90 -40 90 -89s-40 -89 -90 -89c-48 0 -88 40 -88 89z" />
    <glyph glyph-name="j" unicode="j" horiz-adv-x="286" 
d="M67 -20v517h152v-533c0 -100 -63 -169 -164 -169c-53 0 -77 11 -84 14v126c7 -2 22 -6 45 -6c35 0 51 20 51 51zM54 649c0 50 40 89 88 89c50 0 90 -39 90 -89c0 -49 -40 -89 -90 -89c-48 0 -88 40 -88 89z" />
    <glyph glyph-name="k" unicode="k" horiz-adv-x="576" 
d="M567 497l-194 -209l198 -288h-186l-117 175l-49 -53v-122h-152v724h152v-394l151 167h197z" />
    <glyph glyph-name="l" unicode="l" horiz-adv-x="286" 
d="M219 0h-152v724h152v-724z" />
    <glyph glyph-name="m" unicode="m" horiz-adv-x="901" 
d="M219 0h-152v497h145v-57c25 44 89 72 143 72c71 0 122 -29 147 -78c39 56 87 78 154 78c94 0 184 -55 184 -190v-322h-147v288c0 47 -25 84 -79 84s-83 -41 -83 -85v-287h-150v288c0 47 -25 84 -80 84c-53 0 -82 -41 -82 -86v-286z" />
    <glyph glyph-name="n" unicode="n" horiz-adv-x="595" 
d="M219 285v-285h-152v497h147v-57c27 47 88 70 139 70c125 0 181 -89 181 -198v-312h-152v286c0 49 -26 86 -81 86c-50 0 -82 -37 -82 -87z" />
    <glyph glyph-name="o" unicode="o" horiz-adv-x="590" 
d="M295 125c58 0 112 40 112 124s-54 123 -112 123c-57 0 -112 -39 -112 -123c0 -83 55 -124 112 -124zM295 512c149 0 264 -109 264 -263s-115 -264 -264 -264c-148 0 -264 110 -264 264s116 263 264 263z" />
    <glyph glyph-name="p" unicode="p" horiz-adv-x="622" 
d="M219 -190h-152v687h147v-51c21 32 75 63 146 63c144 0 231 -110 231 -259c0 -152 -98 -261 -237 -261c-64 0 -112 22 -135 50v-229zM442 249c0 83 -53 123 -113 123c-59 0 -112 -40 -112 -123c0 -82 53 -124 112 -124c60 0 113 41 113 124z" />
    <glyph glyph-name="q" unicode="q" horiz-adv-x="622" 
d="M556 -190h-149v230c-22 -31 -68 -51 -130 -51c-142 0 -246 109 -246 261c0 148 98 259 240 259c88 0 129 -40 140 -61v49h145v-687zM185 249c0 -82 53 -124 112 -124s112 41 112 124s-53 123 -112 123s-112 -40 -112 -123z" />
    <glyph glyph-name="r" unicode="r" horiz-adv-x="403" 
d="M383 497v-150c-17 4 -33 5 -48 5c-61 0 -116 -36 -116 -135v-217h-152v497h147v-67c26 56 89 72 129 72c15 0 30 -2 40 -5z" />
    <glyph glyph-name="s" unicode="s" horiz-adv-x="466" 
d="M26 141l129 23c2 -34 26 -67 78 -67c39 0 58 21 58 43c0 18 -12 33 -49 41l-57 13c-106 23 -148 83 -148 153c0 91 80 165 191 165c144 0 194 -90 199 -148l-126 -23c-4 33 -25 61 -71 61c-29 0 -54 -17 -54 -43c0 -21 17 -33 39 -37l66 -13c103 -21 153 -83 153 -156
c0 -85 -65 -168 -198 -168c-156 0 -206 101 -210 156z" />
    <glyph glyph-name="t" unicode="t" horiz-adv-x="382" 
d="M249 642v-145h97v-133h-97v-186c0 -41 22 -52 55 -52c16 0 31 3 40 5v-126c-6 -3 -31 -14 -79 -14c-103 0 -166 61 -166 160v213h-88v133h25c52 0 77 35 77 81v64h136z" />
    <glyph glyph-name="u" unicode="u" horiz-adv-x="596" 
d="M388 0c-2 9 -4 37 -4 50c-26 -43 -83 -61 -133 -61c-121 0 -189 88 -189 194v314h152v-282c0 -48 26 -86 80 -86c51 0 83 35 83 85v283h152v-408c0 -45 4 -81 5 -89h-146z" />
    <glyph glyph-name="v" unicode="v" horiz-adv-x="566" 
d="M556 497l-189 -497h-153l-204 497h165l115 -309l106 309h160z" />
    <glyph glyph-name="w" unicode="w" horiz-adv-x="851" 
d="M350 497h161l97 -295l83 295h149l-154 -497h-151l-108 321l-106 -321h-154l-156 497h158l83 -294z" />
    <glyph glyph-name="x" unicode="x" horiz-adv-x="552" 
d="M14 0l171 248l-174 249h179l89 -136l87 136h170l-172 -243c56 -80 121 -174 178 -254h-178l-92 140c-27 -40 -64 -99 -91 -140h-167z" />
    <glyph glyph-name="y" unicode="y" horiz-adv-x="578" 
d="M262 -191h-160l113 258l-209 430h170l121 -266l110 266h161z" />
    <glyph glyph-name="z" unicode="z" horiz-adv-x="489" 
d="M453 0h-417v134l219 233h-213v130h407v-125l-229 -241h233v-131z" />
    <glyph glyph-name="braceleft" unicode="{" horiz-adv-x="385" 
d="M45 269v124c56 0 96 24 96 88v145c0 134 79 197 199 197h40v-114h-37c-37 0 -76 -19 -76 -81v-170c0 -61 -35 -108 -99 -127c63 -19 99 -66 99 -128v-170c0 -62 39 -82 76 -82h37v-113h-40c-120 0 -199 62 -199 196v146c0 64 -40 89 -96 89z" />
    <glyph glyph-name="bar" unicode="|" horiz-adv-x="279" 
d="M203 -162h-126v985h126v-985z" />
    <glyph glyph-name="braceright" unicode="}" horiz-adv-x="385" 
d="M340 393v-124c-56 0 -95 -25 -95 -89v-146c0 -134 -79 -196 -200 -196h-40v113h37c37 0 77 20 77 82v170c0 62 35 109 98 128c-64 19 -98 66 -98 127v170c0 62 -40 81 -77 81h-37v114h40c121 0 200 -63 200 -197v-145c0 -64 39 -88 95 -88z" />
    <glyph glyph-name="asciitilde" unicode="~" horiz-adv-x="589" 
d="M285 230l-47 26c-16 9 -33 13 -49 13c-33 0 -63 -17 -85 -50l-82 65c37 71 100 110 172 110c35 0 72 -9 109 -29l48 -26c17 -9 34 -14 51 -14c32 0 63 17 85 50l80 -65c-37 -71 -100 -110 -171 -110c-36 0 -74 10 -111 30z" />
    <glyph glyph-name="uni00A0" unicode="&#xa0;" horiz-adv-x="246" 
 />
    <glyph glyph-name="exclamdown" unicode="&#xa1;" horiz-adv-x="315" 
d="M213 281l35 -487h-182l35 487h112zM71 426c0 48 38 86 86 86s87 -38 87 -86c0 -47 -39 -86 -87 -86s-86 39 -86 86z" />
    <glyph glyph-name="cent" unicode="&#xa2;" horiz-adv-x="553" 
d="M341 0h-115v84c-109 26 -189 116 -189 235c0 121 80 212 189 237v93h115v-91c97 -18 155 -85 173 -155l-129 -38c-11 35 -39 69 -96 69c-59 0 -108 -41 -108 -115c0 -72 50 -113 110 -113c57 0 88 34 98 68l128 -37c-18 -70 -79 -138 -176 -156v-81z" />
    <glyph glyph-name="sterling" unicode="&#xa3;" horiz-adv-x="592" 
d="M59 383h57c-8 24 -13 51 -13 84c0 98 80 197 220 197c159 0 213 -110 214 -193l-132 -19c-1 53 -28 88 -80 88c-40 0 -77 -25 -77 -78c0 -30 7 -53 17 -79h176v-110h-141c1 -6 1 -12 1 -18c0 -47 -17 -95 -62 -125h131c42 0 74 29 74 74l132 -8
c0 -113 -75 -196 -186 -196h-334v118c63 22 104 63 104 122c0 11 -2 22 -4 33h-97v110z" />
    <glyph glyph-name="currency" unicode="&#xa4;" horiz-adv-x="589" 
d="M77 248c0 37 9 71 25 101l-71 72l91 90l74 -74c30 15 63 23 99 23c35 0 71 -8 98 -23l74 74l91 -90l-71 -72c16 -27 26 -64 26 -101c0 -38 -10 -72 -26 -102l71 -70l-91 -91l-73 74c-30 -15 -64 -23 -99 -23c-36 0 -69 8 -99 23l-74 -74l-91 91l72 71
c-16 27 -26 64 -26 101zM202 248c0 -53 38 -91 93 -91s93 38 93 91s-38 91 -93 91s-93 -38 -93 -91z" />
    <glyph glyph-name="yen" unicode="&#xa5;" horiz-adv-x="631" 
d="M569 125h-182v-125h-146v125h-172v106h172v63h-172v106h98l-146 249h169l129 -236l129 236h162l-149 -249h108v-106h-182v-63h182v-106z" />
    <glyph glyph-name="brokenbar" unicode="&#xa6;" horiz-adv-x="279" 
d="M77 823h126v-398h-126v398zM77 235h126v-398h-126v398z" />
    <glyph glyph-name="section" unicode="&#xa7;" horiz-adv-x="555" 
d="M494 257c0 -62 -34 -102 -73 -126c48 -37 72 -87 72 -140c0 -121 -107 -197 -216 -197c-131 0 -213 75 -219 188l143 22c0 -58 34 -80 76 -80c38 0 63 24 63 57c0 20 -13 41 -36 51l-101 51c-75 38 -142 85 -142 177c0 63 33 103 73 126c-48 38 -71 88 -71 142
c0 120 106 196 216 196c130 0 213 -76 218 -188l-143 -22c0 59 -33 80 -75 80c-39 0 -64 -25 -64 -57c0 -20 13 -40 36 -50l101 -52c75 -39 142 -84 142 -178zM324 282l-102 54c-14 -13 -24 -28 -24 -45c0 -25 7 -41 33 -55l102 -54c13 12 25 27 25 45c0 23 -8 41 -34 55z
" />
    <glyph glyph-name="dieresis" unicode="&#xa8;" horiz-adv-x="418" 
d="M22 632c0 43 33 77 76 77s77 -34 77 -77s-34 -76 -77 -76s-76 33 -76 76zM243 632c0 43 33 77 76 77s77 -34 77 -77s-34 -76 -77 -76s-76 33 -76 76z" />
    <glyph glyph-name="copyright" unicode="&#xa9;" horiz-adv-x="813" 
d="M125 354c0 -161 122 -288 281 -288s282 127 282 288s-123 289 -282 289s-281 -128 -281 -289zM36 354c0 204 166 371 370 371s371 -167 371 -371s-167 -370 -371 -370s-370 166 -370 370zM411 442c-46 0 -83 -32 -83 -91c0 -58 38 -90 85 -90c43 0 67 27 75 54l99 -30
c-17 -64 -77 -127 -174 -127c-109 0 -196 80 -196 193c0 114 85 194 192 194c101 0 159 -62 175 -127l-99 -30c-8 28 -30 54 -74 54z" />
    <glyph glyph-name="ordfeminine" unicode="&#xaa;" horiz-adv-x="422" 
d="M50 397c0 61 47 96 104 105l81 12c18 3 25 12 25 24c0 19 -17 35 -49 35c-36 0 -56 -25 -58 -49l-96 20c5 47 49 116 155 116c114 0 156 -64 156 -136v-170c0 -26 3 -47 4 -54h-100c-1 5 -3 18 -3 38c-19 -30 -52 -48 -97 -48c-77 0 -122 51 -122 107zM200 369
c29 0 60 15 60 67v15l-62 -10c-22 -3 -38 -14 -38 -37c0 -18 11 -35 40 -35z" />
    <glyph glyph-name="guillemotleft" unicode="&#xab;" horiz-adv-x="550" 
d="M306 102h-142l-138 195l140 200h141l-139 -201zM534 102h-143l-138 195l140 200h142l-139 -201z" />
    <glyph glyph-name="logicalnot" unicode="&#xac;" horiz-adv-x="599" 
d="M548 129h-130v195h-373v125h503v-320z" />
    <glyph glyph-name="uni00AD" unicode="&#xad;" horiz-adv-x="390" 
d="M345 233h-300v137h300v-137z" />
    <glyph glyph-name="registered" unicode="&#xae;" horiz-adv-x="813" 
d="M36 354c0 204 166 371 370 371s371 -167 371 -371s-167 -370 -371 -370s-370 166 -370 370zM125 354c0 -161 122 -288 281 -288s282 127 282 288s-123 289 -282 289s-281 -128 -281 -289zM463 157l-61 134h-30v-134h-104v398h167c77 0 137 -58 137 -131
c0 -51 -29 -94 -71 -115l76 -152h-114zM372 375h43c32 0 52 19 52 48c0 30 -20 48 -52 48h-43v-96z" />
    <glyph glyph-name="macron" unicode="&#xaf;" horiz-adv-x="330" 
d="M308 577h-286v105h286v-105z" />
    <glyph glyph-name="degree" unicode="&#xb0;" horiz-adv-x="374" 
d="M126 498c0 -40 26 -66 61 -66s60 27 60 66c0 38 -25 64 -60 64s-61 -26 -61 -64zM18 498c0 93 77 166 169 166s169 -73 169 -166c0 -96 -77 -166 -170 -166s-168 73 -168 166z" />
    <glyph glyph-name="plusminus" unicode="&#xb1;" horiz-adv-x="605" 
d="M61 438h177v117h128v-117h178v-124h-178v-116h-128v116h-177v124zM61 164h483v-124h-483v124z" />
    <glyph glyph-name="twosuperior" unicode="&#xb2;" horiz-adv-x="396" 
d="M154 563h-100c-2 8 -4 19 -4 27c0 68 49 128 149 128c94 0 148 -57 148 -125c0 -48 -31 -83 -84 -114l-67 -39c-3 -2 -5 -3 -5 -5h159v-95h-302v13c0 68 22 123 91 162l60 34c23 13 36 28 36 45c0 13 -9 34 -39 34s-45 -22 -45 -48c0 -9 2 -15 3 -17z" />
    <glyph glyph-name="threesuperior" unicode="&#xb3;" horiz-adv-x="411" 
d="M47 452l103 18c1 -25 21 -46 52 -46c29 0 47 16 47 37c0 28 -22 40 -46 40c-10 0 -20 -2 -29 -6l-35 75l79 47h-158v92h291v-93l-85 -51c63 -10 98 -50 98 -107c0 -66 -60 -127 -162 -127c-93 0 -150 60 -155 121z" />
    <glyph glyph-name="acute" unicode="&#xb4;" horiz-adv-x="306" 
d="M284 707l-141 -151h-121l92 151h170z" />
    <glyph glyph-name="mu" unicode="&#xb5;" horiz-adv-x="606" 
d="M394 0c-2 9 -4 37 -4 50c-26 -43 -83 -61 -133 -61c-13 0 -25 1 -37 3v-182h-152v687h152v-282c0 -48 26 -86 80 -86c51 0 83 35 83 85v283h152v-408c0 -45 4 -80 5 -89h-146z" />
    <glyph glyph-name="paragraph" unicode="&#xb6;" horiz-adv-x="686" 
d="M363 597v-788h-115v482h-18c-113 0 -208 90 -208 205c0 138 111 213 243 213h410v-112h-97v-788h-117v788h-98z" />
    <glyph glyph-name="periodcentered" unicode="&#xb7;" horiz-adv-x="293" 
d="M57 322c0 51 42 91 94 91s94 -40 94 -91c0 -53 -42 -92 -94 -92s-94 39 -94 92z" />
    <glyph glyph-name="cedilla" unicode="&#xb8;" horiz-adv-x="299" 
d="M120 -112l-37 49l48 75h90l-40 -61c59 -2 97 -38 97 -88c0 -45 -34 -98 -133 -98c-58 0 -106 31 -124 55l47 59c15 -15 40 -38 76 -38c24 0 38 9 38 26c0 13 -13 25 -35 25c-8 0 -19 -1 -27 -4z" />
    <glyph glyph-name="onesuperior" unicode="&#xb9;" horiz-adv-x="307" 
d="M241 341h-115v212h-94v74c70 0 101 47 108 82h101v-368z" />
    <glyph glyph-name="ordmasculine" unicode="&#xba;" horiz-adv-x="482" 
d="M241 392c39 0 76 26 76 83s-37 83 -76 83c-38 0 -75 -26 -75 -83c0 -56 37 -83 75 -83zM241 660c104 0 186 -77 186 -185c0 -109 -82 -185 -186 -185s-186 76 -186 185c0 108 82 185 186 185z" />
    <glyph glyph-name="guillemotright" unicode="&#xbb;" horiz-adv-x="550" 
d="M386 102h-142l138 194l-139 201h142l140 -200zM159 102h-143l139 194l-139 201h141l140 -200z" />
    <glyph glyph-name="onequarter" unicode="&#xbc;" horiz-adv-x="822" 
d="M251 281h-115v212h-94v74c70 0 101 47 108 82h101v-368zM441 71v112l164 186h121v-213h59v-85h-59v-71h-111v71h-174zM615 156v102l-91 -102h91zM233 0h-128l454 649h129z" />
    <glyph glyph-name="onehalf" unicode="&#xbd;" horiz-adv-x="849" 
d="M251 281h-115v212h-94v74c70 0 101 47 108 82h101v-368zM232 0h-128l454 649h129zM608 223h-100c-2 8 -4 19 -4 27c0 68 49 128 149 128c94 0 148 -57 148 -125c0 -48 -31 -83 -84 -114l-67 -39c-3 -2 -5 -3 -5 -5h159v-95h-302v13c0 68 22 123 91 162l60 34
c23 13 36 28 36 45c0 13 -9 34 -39 34s-45 -22 -45 -48c0 -9 2 -15 3 -17z" />
    <glyph glyph-name="threequarters" unicode="&#xbe;" horiz-adv-x="901" 
d="M47 392l103 18c1 -25 21 -46 52 -46c29 0 47 16 47 37c0 28 -22 40 -46 40c-10 0 -20 -2 -29 -6l-35 75l79 47h-158v92h291v-93l-85 -51c63 -10 98 -50 98 -107c0 -66 -60 -127 -162 -127c-93 0 -150 60 -155 121zM520 71v112l164 186h121v-213h59v-85h-59v-71h-111v71
h-174zM694 156v102l-91 -102h91zM314 0h-128l454 649h129z" />
    <glyph glyph-name="questiondown" unicode="&#xbf;" horiz-adv-x="499" 
d="M203 282h119c2 -14 4 -28 4 -44c0 -47 -17 -98 -74 -141l-50 -38c-27 -21 -37 -45 -37 -70c0 -39 29 -75 89 -75c61 0 92 44 92 94c0 13 -2 26 -5 38l143 -12c3 -14 4 -29 4 -43c0 -122 -97 -212 -234 -212c-163 0 -243 98 -243 198c0 80 37 136 95 180l38 28
c36 27 59 54 59 97zM175 427c0 48 39 86 86 86c48 0 86 -38 86 -86c0 -47 -38 -86 -86 -86c-47 0 -86 39 -86 86z" />
    <glyph glyph-name="Agrave" unicode="&#xc0;" horiz-adv-x="734" 
d="M552 0l-51 144h-274l-51 -144h-166l267 709h183l264 -709h-172zM366 533l-87 -245h172zM314 759l-150 132h181l104 -132h-135z" />
    <glyph glyph-name="Aacute" unicode="&#xc1;" horiz-adv-x="734" 
d="M552 0l-51 144h-274l-51 -144h-166l267 709h183l264 -709h-172zM366 533l-87 -245h172zM576 891l-150 -132h-135l104 132h181z" />
    <glyph glyph-name="Acircumflex" unicode="&#xc2;" horiz-adv-x="734" 
d="M552 0l-51 144h-274l-51 -144h-166l267 709h183l264 -709h-172zM366 533l-87 -245h172zM305 759h-135l122 132h145l124 -132h-141l-58 65z" />
    <glyph glyph-name="Atilde" unicode="&#xc3;" horiz-adv-x="734" 
d="M552 0l-51 144h-274l-51 -144h-166l267 709h183l264 -709h-172zM366 533l-87 -245h172zM535 895v-34c0 -73 -49 -110 -104 -110c-31 0 -57 12 -79 25l-5 3c-18 11 -33 20 -47 20c-13 0 -26 -9 -26 -29v-13h-87v33c0 73 49 108 103 108c32 0 57 -11 79 -24
c20 -11 37 -22 52 -22s27 9 27 29v14h87z" />
    <glyph glyph-name="Adieresis" unicode="&#xc4;" horiz-adv-x="734" 
d="M120 824c0 45 34 80 78 80c45 0 80 -35 80 -80c0 -44 -35 -77 -80 -77c-44 0 -78 33 -78 77zM453 824c0 45 33 80 78 80c44 0 79 -35 79 -80c0 -44 -35 -77 -79 -77c-45 0 -78 33 -78 77zM552 0l-51 144h-274l-51 -144h-166l267 709h183l264 -709h-172zM366 533l-87 -245
h172z" />
    <glyph glyph-name="Aring" unicode="&#xc5;" horiz-adv-x="734" 
d="M413 757c0 31 -22 49 -47 49c-27 0 -49 -18 -49 -49s22 -48 49 -48c25 0 47 17 47 48zM366 531l-87 -243h172zM552 0l-51 144h-274l-51 -144h-166l250 664c-23 24 -37 56 -37 93c0 81 67 138 142 138s142 -57 142 -138c0 -35 -12 -65 -32 -88l249 -669h-172z" />
    <glyph glyph-name="AE" unicode="&#xc6;" horiz-adv-x="1076" 
d="M1021 0h-451v153h-274l-97 -153h-189l468 709h542v-149h-292v-135h265v-139h-265v-136h293v-150zM379 282h191v299z" />
    <glyph glyph-name="Ccedilla" unicode="&#xc7;" horiz-adv-x="772" 
d="M369 -112l-37 49l32 50c-185 18 -328 159 -328 366c0 221 168 371 366 371c213 0 307 -137 330 -239l-149 -47c-11 49 -56 132 -181 132c-95 0 -202 -68 -202 -217c0 -133 98 -210 204 -210c123 0 172 82 186 133l151 -43c-21 -90 -103 -225 -287 -245l-24 -37
c59 -2 97 -38 97 -88c0 -45 -34 -98 -133 -98c-58 0 -106 31 -124 55l47 59c15 -15 40 -38 76 -38c24 0 38 9 38 26c0 13 -13 25 -35 25c-8 0 -19 -1 -27 -4z" />
    <glyph glyph-name="Egrave" unicode="&#xc8;" horiz-adv-x="583" 
d="M267 759l-150 132h181l104 -132h-135zM527 0h-450v709h449v-149h-291v-135h264v-139h-264v-136h292v-150z" />
    <glyph glyph-name="Eacute" unicode="&#xc9;" horiz-adv-x="583" 
d="M489 891l-150 -132h-135l104 132h181zM527 0h-450v709h449v-149h-291v-135h264v-139h-264v-136h292v-150z" />
    <glyph glyph-name="Ecircumflex" unicode="&#xca;" horiz-adv-x="583" 
d="M239 759h-135l122 132h145l124 -132h-141l-58 65zM527 0h-450v709h449v-149h-291v-135h264v-139h-264v-136h292v-150z" />
    <glyph glyph-name="Edieresis" unicode="&#xcb;" horiz-adv-x="583" 
d="M114 824c0 45 34 80 78 80c45 0 80 -35 80 -80c0 -44 -35 -77 -80 -77c-44 0 -78 33 -78 77zM330 824c0 45 34 80 78 80c45 0 80 -35 80 -80c0 -44 -35 -77 -80 -77c-44 0 -78 33 -78 77zM527 0h-450v709h449v-149h-291v-135h264v-139h-264v-136h292v-150z" />
    <glyph glyph-name="Igrave" unicode="&#xcc;" horiz-adv-x="313" 
d="M237 0h-160v709h160v-709zM100 759l-150 132h181l104 -132h-135z" />
    <glyph glyph-name="Iacute" unicode="&#xcd;" horiz-adv-x="313" 
d="M237 0h-160v709h160v-709zM363 891l-150 -132h-135l104 132h181z" />
    <glyph glyph-name="Icircumflex" unicode="&#xce;" horiz-adv-x="313" 
d="M237 0h-160v709h160v-709zM98 759h-135l122 132h145l124 -132h-141l-58 65z" />
    <glyph glyph-name="Idieresis" unicode="&#xcf;" horiz-adv-x="313" 
d="M-24 824c0 45 33 80 77 80c45 0 79 -35 79 -80c0 -44 -34 -77 -79 -77c-44 0 -77 33 -77 77zM183 824c0 45 33 80 77 80c45 0 79 -35 79 -80c0 -44 -34 -77 -79 -77c-44 0 -77 33 -77 77zM237 0h-160v709h160v-709z" />
    <glyph glyph-name="Eth" unicode="&#xd0;" horiz-adv-x="759" 
d="M365 0h-256v310h-94v111h94v288h257c213 0 356 -136 356 -355s-143 -354 -357 -354zM267 149h92c109 0 198 63 198 205s-89 206 -198 206h-92v-139h144v-111h-144v-161z" />
    <glyph glyph-name="Ntilde" unicode="&#xd1;" horiz-adv-x="769" 
d="M562 895v-34c0 -73 -49 -110 -104 -110c-31 0 -57 12 -79 25l-5 3c-18 11 -33 20 -47 20c-13 0 -26 -9 -26 -29v-13h-87v33c0 73 49 108 103 108c32 0 57 -11 79 -24c20 -11 37 -22 52 -22s27 9 27 29v14h87zM693 0h-167l-292 466v-466h-157v709h192l266 -431v431h158
v-709z" />
    <glyph glyph-name="Ograve" unicode="&#xd2;" horiz-adv-x="809" 
d="M338 759l-150 132h181l104 -132h-135zM200 355c0 -148 106 -214 205 -214c98 0 204 66 204 214s-106 215 -204 215c-99 0 -205 -67 -205 -215zM36 354c0 225 169 370 369 370c199 0 368 -145 368 -370c0 -224 -169 -369 -368 -369c-200 0 -369 145 -369 369z" />
    <glyph glyph-name="Oacute" unicode="&#xd3;" horiz-adv-x="809" 
d="M610 891l-150 -132h-135l104 132h181zM200 355c0 -148 106 -214 205 -214c98 0 204 66 204 214s-106 215 -204 215c-99 0 -205 -67 -205 -215zM36 354c0 225 169 370 369 370c199 0 368 -145 368 -370c0 -224 -169 -369 -368 -369c-200 0 -369 145 -369 369z" />
    <glyph glyph-name="Ocircumflex" unicode="&#xd4;" horiz-adv-x="809" 
d="M344 759h-135l122 132h145l124 -132h-141l-58 65zM200 355c0 -148 106 -214 205 -214c98 0 204 66 204 214s-106 215 -204 215c-99 0 -205 -67 -205 -215zM36 354c0 225 169 370 369 370c199 0 368 -145 368 -370c0 -224 -169 -369 -368 -369c-200 0 -369 145 -369 369z
" />
    <glyph glyph-name="Otilde" unicode="&#xd5;" horiz-adv-x="809" 
d="M573 895v-34c0 -73 -49 -110 -104 -110c-31 0 -57 12 -79 25l-5 3c-18 11 -33 20 -47 20c-13 0 -26 -9 -26 -29v-13h-87v33c0 73 49 108 103 108c32 0 57 -11 79 -24c20 -11 37 -22 52 -22s27 9 27 29v14h87zM200 355c0 -148 106 -214 205 -214c98 0 204 66 204 214
s-106 215 -204 215c-99 0 -205 -67 -205 -215zM36 354c0 225 169 370 369 370c199 0 368 -145 368 -370c0 -224 -169 -369 -368 -369c-200 0 -369 145 -369 369z" />
    <glyph glyph-name="Odieresis" unicode="&#xd6;" horiz-adv-x="809" 
d="M150 824c0 45 33 80 78 80c44 0 79 -35 79 -80c0 -44 -35 -77 -79 -77c-45 0 -78 33 -78 77zM503 824c0 45 33 80 78 80s80 -35 80 -80c0 -44 -35 -77 -80 -77s-78 33 -78 77zM200 355c0 -148 106 -214 205 -214c98 0 204 66 204 214s-106 215 -204 215
c-99 0 -205 -67 -205 -215zM36 354c0 225 169 370 369 370c199 0 368 -145 368 -370c0 -224 -169 -369 -368 -369c-200 0 -369 145 -369 369z" />
    <glyph glyph-name="multiply" unicode="&#xd7;" horiz-adv-x="580" 
d="M454 43l-164 165l-164 -165l-90 92l163 164l-163 165l90 90l164 -165l164 165l90 -90l-164 -165l164 -164z" />
    <glyph glyph-name="Oslash" unicode="&#xd8;" horiz-adv-x="809" 
d="M36 354c0 225 169 370 369 370c63 0 123 -15 175 -42l70 90l96 -74l-69 -89c59 -63 96 -151 96 -255c0 -224 -169 -369 -368 -369c-64 0 -125 15 -178 42l-69 -89l-98 73l70 90c-58 63 -94 150 -94 253zM609 355c0 50 -12 92 -33 124l-250 -324c25 -10 52 -14 79 -14
c98 0 204 66 204 214zM200 355c0 -50 12 -90 32 -122l250 322c-25 10 -51 15 -77 15c-99 0 -205 -67 -205 -215z" />
    <glyph glyph-name="Ugrave" unicode="&#xd9;" horiz-adv-x="704" 
d="M300 759l-150 132h181l104 -132h-135zM352 -16c-156 0 -281 94 -281 272v453h158v-440c0 -86 48 -129 123 -129s123 43 123 129v440h158v-453c0 -178 -125 -272 -281 -272z" />
    <glyph glyph-name="Uacute" unicode="&#xda;" horiz-adv-x="704" 
d="M545 891l-150 -132h-135l104 132h181zM352 -16c-156 0 -281 94 -281 272v453h158v-440c0 -86 48 -129 123 -129s123 43 123 129v440h158v-453c0 -178 -125 -272 -281 -272z" />
    <glyph glyph-name="Ucircumflex" unicode="&#xdb;" horiz-adv-x="704" 
d="M292 759h-135l122 132h145l124 -132h-141l-58 65zM352 -16c-156 0 -281 94 -281 272v453h158v-440c0 -86 48 -129 123 -129s123 43 123 129v440h158v-453c0 -178 -125 -272 -281 -272z" />
    <glyph glyph-name="Udieresis" unicode="&#xdc;" horiz-adv-x="704" 
d="M152 824c0 45 33 80 78 80s80 -35 80 -80c0 -44 -35 -77 -80 -77s-78 33 -78 77zM397 824c0 45 33 80 77 80c45 0 80 -35 80 -80c0 -44 -35 -77 -80 -77c-44 0 -77 33 -77 77zM352 -16c-156 0 -281 94 -281 272v453h158v-440c0 -86 48 -129 123 -129s123 43 123 129v440
h158v-453c0 -178 -125 -272 -281 -272z" />
    <glyph glyph-name="Yacute" unicode="&#xdd;" horiz-adv-x="673" 
d="M256 296l-246 413h185l145 -263l147 263h176l-249 -413v-296h-158v296zM540 891l-150 -132h-135l104 132h181z" />
    <glyph glyph-name="Thorn" unicode="&#xde;" horiz-adv-x="610" 
d="M236 264h92c60 0 99 37 99 92c0 57 -39 93 -99 93h-92v-185zM340 130h-105v-130h-158v709h158v-125h105c139 0 245 -98 245 -227c0 -130 -106 -227 -245 -227z" />
    <glyph glyph-name="germandbls" unicode="&#xdf;" horiz-adv-x="611" 
d="M424 343c1 -15 10 -21 31 -29l28 -11c71 -28 117 -84 117 -157c0 -68 -53 -161 -186 -161c-122 0 -170 87 -171 145l119 20c1 -22 14 -52 53 -52c27 0 44 18 44 39s-12 35 -47 48l-26 10c-52 19 -113 57 -113 135c0 70 41 102 69 121l15 10c29 19 44 38 44 65
c0 31 -24 64 -87 64c-50 0 -99 -31 -99 -118v-472h-148v483c0 169 120 241 247 241c148 0 237 -87 237 -190c0 -78 -41 -121 -88 -150l-16 -10c-15 -10 -23 -17 -23 -31z" />
    <glyph glyph-name="agrave" unicode="&#xe0;" horiz-adv-x="546" 
d="M37 137c0 88 65 138 147 150l117 18c27 4 36 17 36 34c0 29 -25 54 -73 54c-53 0 -82 -36 -85 -73l-132 27c6 71 72 165 218 165c161 0 220 -90 220 -192v-243c0 -39 5 -72 6 -77h-137c-1 4 -5 22 -5 56c-26 -42 -74 -70 -140 -70c-109 0 -172 72 -172 151zM246 96
c45 0 91 22 91 99v22l-94 -15c-32 -5 -56 -20 -56 -55c0 -26 17 -51 59 -51zM223 556l-142 151h173l93 -151h-124z" />
    <glyph glyph-name="aacute" unicode="&#xe1;" horiz-adv-x="546" 
d="M37 137c0 88 65 138 147 150l117 18c27 4 36 17 36 34c0 29 -25 54 -73 54c-53 0 -82 -36 -85 -73l-132 27c6 71 72 165 218 165c161 0 220 -90 220 -192v-243c0 -39 5 -72 6 -77h-137c-1 4 -5 22 -5 56c-26 -42 -74 -70 -140 -70c-109 0 -172 72 -172 151zM246 96
c45 0 91 22 91 99v22l-94 -15c-32 -5 -56 -20 -56 -55c0 -26 17 -51 59 -51zM452 707l-141 -151h-121l92 151h170z" />
    <glyph glyph-name="acircumflex" unicode="&#xe2;" horiz-adv-x="546" 
d="M37 137c0 88 65 138 147 150l117 18c27 4 36 17 36 34c0 29 -25 54 -73 54c-53 0 -82 -36 -85 -73l-132 27c6 71 72 165 218 165c161 0 220 -90 220 -192v-243c0 -39 5 -72 6 -77h-137c-1 4 -5 22 -5 56c-26 -42 -74 -70 -140 -70c-109 0 -172 72 -172 151zM246 96
c45 0 91 22 91 99v22l-94 -15c-32 -5 -56 -20 -56 -55c0 -26 17 -51 59 -51zM194 556h-113l113 151h143l114 -151h-116l-71 71z" />
    <glyph glyph-name="atilde" unicode="&#xe3;" horiz-adv-x="546" 
d="M37 137c0 88 65 138 147 150l117 18c27 4 36 17 36 34c0 29 -25 54 -73 54c-53 0 -82 -36 -85 -73l-132 27c6 71 72 165 218 165c161 0 220 -90 220 -192v-243c0 -39 5 -72 6 -77h-137c-1 4 -5 22 -5 56c-26 -42 -74 -70 -140 -70c-109 0 -172 72 -172 151zM246 96
c45 0 91 22 91 99v22l-94 -15c-32 -5 -56 -20 -56 -55c0 -26 17 -51 59 -51zM454 706v-20c0 -88 -47 -130 -112 -130c-30 0 -53 11 -76 23c-20 10 -37 21 -56 21c-20 0 -33 -13 -34 -43h-86v23c0 86 50 127 113 127c31 0 54 -11 76 -23c20 -12 37 -22 55 -22
c22 0 34 15 35 44h85z" />
    <glyph glyph-name="adieresis" unicode="&#xe4;" horiz-adv-x="546" 
d="M37 137c0 88 65 138 147 150l117 18c27 4 36 17 36 34c0 29 -25 54 -73 54c-53 0 -82 -36 -85 -73l-132 27c6 71 72 165 218 165c161 0 220 -90 220 -192v-243c0 -39 5 -72 6 -77h-137c-1 4 -5 22 -5 56c-26 -42 -74 -70 -140 -70c-109 0 -172 72 -172 151zM246 96
c45 0 91 22 91 99v22l-94 -15c-32 -5 -56 -20 -56 -55c0 -26 17 -51 59 -51zM81 632c0 43 33 77 76 77s77 -34 77 -77s-34 -76 -77 -76s-76 33 -76 76zM302 632c0 43 33 77 76 77s77 -34 77 -77s-34 -76 -77 -76s-76 33 -76 76z" />
    <glyph glyph-name="aring" unicode="&#xe5;" horiz-adv-x="546" 
d="M37 137c0 88 65 138 147 150l117 18c27 4 36 17 36 34c0 29 -25 54 -73 54c-53 0 -82 -36 -85 -73l-132 27c6 71 72 165 218 165c161 0 220 -90 220 -192v-243c0 -39 5 -72 6 -77h-137c-1 4 -5 22 -5 56c-26 -42 -74 -70 -140 -70c-109 0 -172 72 -172 151zM246 96
c45 0 91 22 91 99v22l-94 -15c-32 -5 -56 -20 -56 -55c0 -26 17 -51 59 -51zM377 660c0 -66 -54 -111 -116 -111s-116 45 -116 111s54 113 116 113s116 -47 116 -113zM298 660c0 23 -16 38 -37 38s-37 -15 -37 -38s16 -38 37 -38s37 15 37 38z" />
    <glyph glyph-name="ae" unicode="&#xe6;" horiz-adv-x="870" 
d="M699 181l126 -38c-25 -86 -106 -158 -231 -158c-73 0 -139 28 -185 79c-36 -42 -96 -79 -180 -79c-127 0 -192 71 -192 152c0 88 65 138 147 150l120 18c28 4 37 17 37 34c0 29 -25 54 -74 54c-56 0 -85 -36 -89 -73l-131 27c6 71 74 165 221 165c80 0 133 -22 165 -57
c44 36 99 57 157 57c152 0 244 -95 244 -255c0 -21 -2 -44 -3 -47h-349c4 -60 55 -97 114 -97c56 0 88 28 103 68zM248 96c44 0 93 22 93 99v22l-98 -15c-32 -5 -57 -21 -57 -56c0 -24 20 -50 62 -50zM485 308h202c-2 38 -28 84 -102 84c-65 0 -97 -47 -100 -84z" />
    <glyph glyph-name="ccedilla" unicode="&#xe7;" horiz-adv-x="561" 
d="M296 372c-63 0 -114 -44 -114 -124c0 -79 53 -123 116 -123c59 0 92 37 103 74l134 -41c-20 -76 -85 -152 -190 -169l-25 -38c59 -2 97 -38 97 -88c0 -45 -34 -98 -133 -98c-58 0 -106 31 -124 55l47 59c15 -15 40 -38 76 -38c24 0 38 9 38 26c0 13 -13 25 -35 25
c-8 0 -19 -1 -27 -4l-37 49l33 51c-127 19 -224 121 -224 260c0 155 116 264 262 264c137 0 217 -84 239 -173l-136 -41c-11 38 -41 74 -100 74z" />
    <glyph glyph-name="egrave" unicode="&#xe8;" horiz-adv-x="559" 
d="M182 308h199c-2 38 -28 84 -100 84c-64 0 -96 -47 -99 -84zM392 179l127 -36c-24 -86 -103 -158 -229 -158c-137 0 -259 98 -259 265c0 160 119 262 248 262c154 0 249 -95 249 -255c0 -21 -2 -44 -3 -47h-346c3 -56 54 -96 113 -96c55 0 86 26 100 65zM235 556l-142 151
h173l93 -151h-124z" />
    <glyph glyph-name="eacute" unicode="&#xe9;" horiz-adv-x="559" 
d="M470 707l-141 -151h-121l92 151h170zM182 308h199c-2 38 -28 84 -100 84c-64 0 -96 -47 -99 -84zM392 179l127 -36c-24 -86 -103 -158 -229 -158c-137 0 -259 98 -259 265c0 160 119 262 248 262c154 0 249 -95 249 -255c0 -21 -2 -44 -3 -47h-346c3 -56 54 -96 113 -96
c55 0 86 26 100 65z" />
    <glyph glyph-name="ecircumflex" unicode="&#xea;" horiz-adv-x="559" 
d="M211 556h-113l113 151h143l114 -151h-116l-71 71zM182 308h199c-2 38 -28 84 -100 84c-64 0 -96 -47 -99 -84zM392 179l127 -36c-24 -86 -103 -158 -229 -158c-137 0 -259 98 -259 265c0 160 119 262 248 262c154 0 249 -95 249 -255c0 -21 -2 -44 -3 -47h-346
c3 -56 54 -96 113 -96c55 0 86 26 100 65z" />
    <glyph glyph-name="edieresis" unicode="&#xeb;" horiz-adv-x="559" 
d="M97 632c0 43 33 77 76 77s77 -34 77 -77s-34 -76 -77 -76s-76 33 -76 76zM318 632c0 43 33 77 76 77s77 -34 77 -77s-34 -76 -77 -76s-76 33 -76 76zM182 308h199c-2 38 -28 84 -100 84c-64 0 -96 -47 -99 -84zM392 179l127 -36c-24 -86 -103 -158 -229 -158
c-137 0 -259 98 -259 265c0 160 119 262 248 262c154 0 249 -95 249 -255c0 -21 -2 -44 -3 -47h-346c3 -56 54 -96 113 -96c55 0 86 26 100 65z" />
    <glyph glyph-name="igrave" unicode="&#xec;" horiz-adv-x="285" 
d="M219 0h-152v497h152v-497zM89 556l-142 151h173l93 -151h-124z" />
    <glyph glyph-name="iacute" unicode="&#xed;" horiz-adv-x="285" 
d="M331 707l-141 -151h-121l92 151h170zM219 0h-152v497h152v-497z" />
    <glyph glyph-name="icircumflex" unicode="&#xee;" horiz-adv-x="285" 
d="M71 556h-113l113 151h143l114 -151h-116l-71 71zM219 0h-152v497h152v-497z" />
    <glyph glyph-name="idieresis" unicode="&#xef;" horiz-adv-x="285" 
d="M-33 632c0 42 33 76 76 76c42 0 76 -34 76 -76c0 -43 -34 -76 -76 -76c-43 0 -76 33 -76 76zM166 632c0 42 33 76 75 76c43 0 77 -34 77 -76c0 -43 -34 -76 -77 -76c-42 0 -75 33 -75 76zM219 0h-152v497h152v-497z" />
    <glyph glyph-name="eth" unicode="&#xf0;" 
d="M530 613l-75 -29c64 -77 101 -178 101 -299c0 -157 -85 -300 -263 -300c-147 0 -262 104 -262 246c0 154 127 230 246 230c38 0 86 -12 105 -33c-12 41 -34 75 -61 104l-139 -53l-34 88l83 33c-36 20 -74 34 -109 44l46 112c80 -20 154 -54 211 -98l116 45zM293 122
c58 0 112 39 112 110c0 75 -54 112 -112 112c-56 0 -111 -39 -111 -111c0 -70 55 -111 111 -111z" />
    <glyph glyph-name="ntilde" unicode="&#xf1;" horiz-adv-x="595" 
d="M219 285v-285h-152v497h147v-57c27 47 88 70 139 70c125 0 181 -89 181 -198v-312h-152v286c0 49 -26 86 -81 86c-50 0 -82 -37 -82 -87zM486 706v-20c0 -88 -47 -130 -112 -130c-30 0 -53 11 -76 23c-20 10 -37 21 -56 21c-20 0 -33 -13 -34 -43h-86v23
c0 86 50 127 113 127c31 0 54 -11 76 -23c20 -12 37 -22 55 -22c22 0 34 15 35 44h85z" />
    <glyph glyph-name="ograve" unicode="&#xf2;" horiz-adv-x="590" 
d="M295 125c58 0 112 40 112 124s-54 123 -112 123c-57 0 -112 -39 -112 -123c0 -83 55 -124 112 -124zM295 512c149 0 264 -109 264 -263s-115 -264 -264 -264c-148 0 -264 110 -264 264s116 263 264 263zM241 556l-142 151h173l93 -151h-124z" />
    <glyph glyph-name="oacute" unicode="&#xf3;" horiz-adv-x="590" 
d="M484 707l-141 -151h-121l92 151h170zM295 125c58 0 112 40 112 124s-54 123 -112 123c-57 0 -112 -39 -112 -123c0 -83 55 -124 112 -124zM295 512c149 0 264 -109 264 -263s-115 -264 -264 -264c-148 0 -264 110 -264 264s116 263 264 263z" />
    <glyph glyph-name="ocircumflex" unicode="&#xf4;" horiz-adv-x="590" 
d="M225 556h-113l113 151h143l114 -151h-116l-71 71zM295 125c58 0 112 40 112 124s-54 123 -112 123c-57 0 -112 -39 -112 -123c0 -83 55 -124 112 -124zM295 512c149 0 264 -109 264 -263s-115 -264 -264 -264c-148 0 -264 110 -264 264s116 263 264 263z" />
    <glyph glyph-name="otilde" unicode="&#xf5;" horiz-adv-x="590" 
d="M295 125c58 0 112 40 112 124s-54 123 -112 123c-57 0 -112 -39 -112 -123c0 -83 55 -124 112 -124zM295 512c149 0 264 -109 264 -263s-115 -264 -264 -264c-148 0 -264 110 -264 264s116 263 264 263zM479 706v-20c0 -88 -47 -130 -112 -130c-30 0 -53 11 -76 23
c-20 10 -37 21 -56 21c-20 0 -33 -13 -34 -43h-86v23c0 86 50 127 113 127c31 0 54 -11 76 -23c20 -12 37 -22 55 -22c22 0 34 15 35 44h85z" />
    <glyph glyph-name="odieresis" unicode="&#xf6;" horiz-adv-x="590" 
d="M108 632c0 43 33 77 76 77s77 -34 77 -77s-34 -76 -77 -76s-76 33 -76 76zM329 632c0 43 33 77 76 77s77 -34 77 -77s-34 -76 -77 -76s-76 33 -76 76zM295 125c58 0 112 40 112 124s-54 123 -112 123c-57 0 -112 -39 -112 -123c0 -83 55 -124 112 -124zM295 512
c149 0 264 -109 264 -263s-115 -264 -264 -264c-148 0 -264 110 -264 264s116 263 264 263z" />
    <glyph glyph-name="divide" unicode="&#xf7;" horiz-adv-x="597" 
d="M210 113c0 46 38 84 85 84c46 0 84 -38 84 -84s-38 -85 -84 -85c-47 0 -85 39 -85 85zM210 485c0 46 38 84 85 84c46 0 84 -38 84 -84s-38 -85 -84 -85c-47 0 -85 39 -85 85zM46 236v125h505v-125h-505z" />
    <glyph glyph-name="oslash" unicode="&#xf8;" horiz-adv-x="590" 
d="M295 512c50 0 96 -12 135 -34l54 65l68 -57l-53 -64c38 -45 60 -105 60 -173c0 -154 -115 -264 -264 -264c-48 0 -92 12 -130 32l-51 -62l-69 57l50 60c-40 46 -64 107 -64 177c0 154 116 263 264 263zM183 249c0 -22 4 -41 10 -57l143 172c-13 5 -27 8 -41 8
c-57 0 -112 -39 -112 -123zM295 125c58 0 112 40 112 124c0 19 -3 36 -8 51l-140 -169c11 -4 23 -6 36 -6z" />
    <glyph glyph-name="ugrave" unicode="&#xf9;" horiz-adv-x="596" 
d="M388 0c-2 9 -4 37 -4 50c-26 -43 -83 -61 -133 -61c-121 0 -189 88 -189 194v314h152v-282c0 -48 26 -86 80 -86c51 0 83 35 83 85v283h152v-408c0 -45 4 -81 5 -89h-146zM259 556l-142 151h173l93 -151h-124z" />
    <glyph glyph-name="uacute" unicode="&#xfa;" horiz-adv-x="596" 
d="M467 707l-141 -151h-121l92 151h170zM388 0c-2 9 -4 37 -4 50c-26 -43 -83 -61 -133 -61c-121 0 -189 88 -189 194v314h152v-282c0 -48 26 -86 80 -86c51 0 83 35 83 85v283h152v-408c0 -45 4 -81 5 -89h-146z" />
    <glyph glyph-name="ucircumflex" unicode="&#xfb;" horiz-adv-x="596" 
d="M226 556h-113l113 151h143l114 -151h-116l-71 71zM388 0c-2 9 -4 37 -4 50c-26 -43 -83 -61 -133 -61c-121 0 -189 88 -189 194v314h152v-282c0 -48 26 -86 80 -86c51 0 83 35 83 85v283h152v-408c0 -45 4 -81 5 -89h-146z" />
    <glyph glyph-name="udieresis" unicode="&#xfc;" horiz-adv-x="596" 
d="M113 632c0 43 33 77 76 77s77 -34 77 -77s-34 -76 -77 -76s-76 33 -76 76zM334 632c0 43 33 77 76 77s77 -34 77 -77s-34 -76 -77 -76s-76 33 -76 76zM388 0c-2 9 -4 37 -4 50c-26 -43 -83 -61 -133 -61c-121 0 -189 88 -189 194v314h152v-282c0 -48 26 -86 80 -86
c51 0 83 35 83 85v283h152v-408c0 -45 4 -81 5 -89h-146z" />
    <glyph glyph-name="yacute" unicode="&#xfd;" horiz-adv-x="578" 
d="M262 -191h-160l113 258l-209 430h170l121 -266l110 266h161zM469 707l-141 -151h-121l92 151h170z" />
    <glyph glyph-name="thorn" unicode="&#xfe;" horiz-adv-x="622" 
d="M219 -190h-152v914h152v-272c23 30 75 57 141 57c144 0 231 -110 231 -259c0 -152 -98 -261 -237 -261c-64 0 -112 22 -135 50v-229zM442 249c0 83 -53 123 -113 123c-59 0 -112 -40 -112 -123c0 -82 53 -124 112 -124c60 0 113 41 113 124z" />
    <glyph glyph-name="ydieresis" unicode="&#xff;" horiz-adv-x="578" 
d="M262 -191h-160l113 258l-209 430h170l121 -266l110 266h161zM105 632c0 43 33 77 76 77s77 -34 77 -77s-34 -76 -77 -76s-76 33 -76 76zM326 632c0 43 33 77 76 77s77 -34 77 -77s-34 -76 -77 -76s-76 33 -76 76z" />
    <glyph glyph-name="dotlessi" unicode="&#x131;" horiz-adv-x="285" 
d="M219 0h-152v497h152v-497z" />
    <glyph glyph-name="Lslash" unicode="&#x141;" horiz-adv-x="594" 
d="M569 0h-464v244l-91 -42v123l91 42v342h158v-269l161 74v-122l-161 -75v-166h306v-151z" />
    <glyph glyph-name="lslash" unicode="&#x142;" horiz-adv-x="347" 
d="M249 0h-152v250l-83 -38v123l83 38v351h152v-281l84 39v-122l-84 -39v-321z" />
    <glyph glyph-name="OE" unicode="&#x152;" horiz-adv-x="1116" 
d="M200 355c0 -148 106 -214 205 -214c98 0 204 66 204 214s-106 215 -204 215c-99 0 -205 -67 -205 -215zM1060 0h-451v60c-49 -49 -115 -75 -204 -75c-200 0 -369 145 -369 369c0 225 169 370 369 370c89 0 157 -27 204 -75v60h450v-149h-291v-135h264v-139h-264v-136h292
v-150z" />
    <glyph glyph-name="oe" unicode="&#x153;" horiz-adv-x="937" 
d="M560 308h199c-2 38 -28 84 -100 84c-64 0 -96 -47 -99 -84zM295 125c58 0 112 40 112 124s-54 123 -112 123c-57 0 -112 -39 -112 -123c0 -83 55 -124 112 -124zM295 512c74 0 140 -27 187 -73c46 47 109 73 175 73c154 0 249 -95 249 -255c0 -21 -2 -44 -3 -47h-346
c3 -56 54 -96 113 -96c55 0 86 26 100 65l127 -36c-24 -86 -103 -158 -229 -158c-71 0 -138 26 -186 74c-47 -46 -113 -74 -187 -74c-148 0 -264 110 -264 264s116 263 264 263z" />
    <glyph glyph-name="Scaron" unicode="&#x160;" horiz-adv-x="609" 
d="M116 891h140l58 -65l58 65h135l-123 -132h-145zM565 535l-142 -40c-5 33 -32 89 -118 89c-59 0 -97 -37 -97 -76c0 -34 21 -59 70 -68l95 -18c135 -25 205 -112 205 -213c0 -111 -93 -224 -262 -224c-196 0 -280 127 -290 227l145 35c6 -65 50 -122 147 -122
c62 0 100 30 100 74c0 36 -29 62 -76 71l-97 18c-120 23 -193 103 -193 208c0 134 118 228 254 228c177 0 244 -106 259 -189z" />
    <glyph glyph-name="scaron" unicode="&#x161;" horiz-adv-x="466" 
d="M48 707h116l71 -72l70 72h113l-112 -151h-145zM26 141l129 23c2 -34 26 -67 78 -67c39 0 58 21 58 43c0 18 -12 33 -49 41l-57 13c-106 23 -148 83 -148 153c0 91 80 165 191 165c144 0 194 -90 199 -148l-126 -23c-4 33 -25 61 -71 61c-29 0 -54 -17 -54 -43
c0 -21 17 -33 39 -37l66 -13c103 -21 153 -83 153 -156c0 -85 -65 -168 -198 -168c-156 0 -206 101 -210 156z" />
    <glyph glyph-name="Ydieresis" unicode="&#x178;" horiz-adv-x="673" 
d="M139 824c0 45 33 80 78 80s80 -35 80 -80c0 -44 -35 -77 -80 -77s-78 33 -78 77zM384 824c0 45 33 80 77 80c45 0 80 -35 80 -80c0 -44 -35 -77 -80 -77c-44 0 -77 33 -77 77zM256 296l-246 413h185l145 -263l147 263h176l-249 -413v-296h-158v296z" />
    <glyph glyph-name="Zcaron" unicode="&#x17d;" horiz-adv-x="644" 
d="M131 891h140l58 -65l58 65h135l-123 -132h-145zM599 0h-563v152l342 406h-327v151h544v-146l-350 -412h354v-151z" />
    <glyph glyph-name="zcaron" unicode="&#x17e;" horiz-adv-x="489" 
d="M64 707h116l71 -72l70 72h113l-112 -151h-145zM453 0h-417v134l219 233h-213v130h407v-125l-229 -241h233v-131z" />
    <glyph glyph-name="florin" unicode="&#x192;" horiz-adv-x="529" 
d="M118 30l69 340h-93v126h118l17 82c23 114 115 163 198 163c50 0 65 -5 97 -16v-130c-21 5 -41 8 -67 8c-23 0 -66 -10 -78 -68l-8 -39h110v-126h-136l-77 -383c-23 -115 -116 -163 -198 -163c-50 0 -68 5 -100 15v131c20 -5 44 -8 70 -8c23 0 66 11 78 68z" />
    <glyph glyph-name="circumflex" unicode="&#x2c6;" horiz-adv-x="414" 
d="M135 556h-113l113 151h143l114 -151h-116l-71 71z" />
    <glyph glyph-name="caron" unicode="&#x2c7;" horiz-adv-x="414" 
d="M22 707h116l71 -72l70 72h113l-112 -151h-145z" />
    <glyph glyph-name="uni02C9" unicode="&#x2c9;" horiz-adv-x="330" 
d="M308 577h-286v105h286v-105z" />
    <glyph glyph-name="breve" unicode="&#x2d8;" horiz-adv-x="380" 
d="M190 551c-110 0 -166 74 -168 156h96c2 -26 22 -56 72 -56s70 30 72 56h97c-3 -82 -58 -156 -169 -156z" />
    <glyph glyph-name="dotaccent" unicode="&#x2d9;" horiz-adv-x="201" 
d="M12 633c0 49 39 87 89 87c49 0 89 -38 89 -87s-40 -86 -89 -86c-50 0 -89 37 -89 86z" />
    <glyph glyph-name="ring" unicode="&#x2da;" horiz-adv-x="276" 
d="M254 652c0 -66 -54 -111 -116 -111s-116 45 -116 111s54 113 116 113s116 -47 116 -113zM175 652c0 23 -16 38 -37 38s-37 -15 -37 -38s16 -38 37 -38s37 15 37 38z" />
    <glyph glyph-name="ogonek" unicode="&#x2db;" horiz-adv-x="220" 
d="M145 -226c-75 0 -126 43 -126 109c0 77 58 113 103 133l76 -16c-38 -18 -76 -53 -76 -93c0 -28 20 -43 47 -43c13 0 22 1 29 2v-84c-13 -5 -30 -8 -53 -8z" />
    <glyph glyph-name="tilde" unicode="&#x2dc;" horiz-adv-x="398" 
d="M381 706v-20c0 -88 -47 -130 -112 -130c-30 0 -53 11 -76 23c-20 10 -37 21 -56 21c-20 0 -33 -13 -34 -43h-86v23c0 86 50 127 113 127c31 0 54 -11 76 -23c20 -12 37 -22 55 -22c22 0 34 15 35 44h85z" />
    <glyph glyph-name="hungarumlaut" unicode="&#x2dd;" horiz-adv-x="410" 
d="M213 707l-102 -151h-92l53 151h141zM391 707l-118 -151h-93l69 151h142z" />
    <glyph glyph-name="uni0394" unicode="&#x394;" horiz-adv-x="705" 
d="M0 0l266 709h173l266 -709h-705zM352 539l-136 -391h273z" />
    <glyph glyph-name="uni03A9" unicode="&#x3a9;" horiz-adv-x="774" 
d="M387 575c-93 0 -178 -65 -178 -178c0 -97 67 -162 145 -178v-219h-300v145h162c-95 39 -171 133 -171 266c0 191 160 314 342 314s342 -123 342 -314c0 -133 -75 -227 -171 -266h163v-145h-301v219c79 16 146 81 146 178c0 113 -85 178 -179 178z" />
    <glyph glyph-name="uni03BC" unicode="&#x3bc;" horiz-adv-x="606" 
d="M394 0c-2 9 -4 37 -4 50c-26 -43 -83 -61 -133 -61c-13 0 -25 1 -37 3v-182h-152v687h152v-282c0 -48 26 -86 80 -86c51 0 83 35 83 85v283h152v-408c0 -45 4 -80 5 -89h-146z" />
    <glyph glyph-name="pi" unicode="&#x3c0;" horiz-adv-x="649" 
d="M613 5c-1 0 -28 -14 -75 -14c-102 0 -154 60 -154 156v221h-116v-368h-153v368h-83v129h579v-129h-75v-200c0 -36 24 -45 46 -45c20 0 22 1 31 3v-121z" />
    <glyph glyph-name="uni2007" unicode="&#x2007;" horiz-adv-x="628" 
 />
    <glyph glyph-name="uni2008" unicode="&#x2008;" horiz-adv-x="327" 
 />
    <glyph glyph-name="uni200B" unicode="&#x200b;" horiz-adv-x="0" 
 />
    <glyph glyph-name="endash" unicode="&#x2013;" horiz-adv-x="638" 
d="M578 236h-517v132h517v-132z" />
    <glyph glyph-name="emdash" unicode="&#x2014;" horiz-adv-x="1074" 
d="M1004 236h-933v132h933v-132z" />
    <glyph glyph-name="quoteleft" unicode="&#x2018;" horiz-adv-x="241" 
d="M210 499c0 -42 -36 -77 -86 -77c-60 0 -93 50 -93 101c0 138 98 187 164 192v-68c-35 -4 -82 -32 -85 -78c2 1 12 5 22 5c50 0 78 -31 78 -75z" />
    <glyph glyph-name="quoteright" unicode="&#x2019;" horiz-adv-x="241" 
d="M31 637c0 42 35 77 86 77c60 0 93 -49 93 -101c0 -138 -98 -187 -164 -192v68c35 4 81 30 85 77c0 -1 -12 -5 -22 -5c-50 0 -78 33 -78 76z" />
    <glyph glyph-name="quotesinglbase" unicode="&#x201a;" horiz-adv-x="241" 
d="M31 73c0 42 35 77 86 77c60 0 93 -50 93 -101c0 -139 -98 -187 -164 -192v67c35 4 81 30 85 77c-4 -2 -13 -5 -22 -5c-50 0 -78 33 -78 77z" />
    <glyph glyph-name="quotedblleft" unicode="&#x201c;" horiz-adv-x="451" 
d="M210 499c0 -42 -36 -77 -86 -77c-60 0 -93 50 -93 101c0 138 98 187 164 192v-68c-35 -4 -82 -31 -85 -77c2 1 12 5 22 5c50 0 78 -32 78 -76zM420 499c0 -42 -36 -77 -86 -77c-60 0 -92 50 -92 101c0 138 97 187 163 192v-68c-35 -4 -82 -31 -85 -77c2 1 12 5 22 5
c50 0 78 -32 78 -76z" />
    <glyph glyph-name="quotedblright" unicode="&#x201d;" horiz-adv-x="448" 
d="M31 637c0 42 35 77 86 77c59 0 93 -49 93 -101c0 -138 -98 -186 -164 -191v67c35 4 81 30 85 77c-2 -1 -10 -5 -22 -5c-50 0 -78 33 -78 76zM239 637c0 42 35 77 86 77c59 0 92 -49 92 -101c0 -138 -97 -186 -163 -191v67c35 4 81 30 85 77c-4 -2 -11 -5 -22 -5
c-50 0 -78 33 -78 76z" />
    <glyph glyph-name="quotedblbase" unicode="&#x201e;" horiz-adv-x="448" 
d="M31 73c0 42 35 77 86 77c60 0 93 -50 93 -101c0 -139 -98 -187 -164 -192v67c35 4 81 30 85 77c-4 -2 -13 -5 -22 -5c-50 0 -78 33 -78 77zM238 73c0 42 35 77 86 77c60 0 93 -50 93 -101c0 -139 -98 -187 -164 -192v67c35 4 81 30 85 77c-4 -2 -13 -5 -22 -5
c-50 0 -78 33 -78 77z" />
    <glyph glyph-name="dagger" unicode="&#x2020;" horiz-adv-x="427" 
d="M276 163h-126v293h-120v114h120v139h126v-139h121v-114h-121v-293z" />
    <glyph glyph-name="daggerdbl" unicode="&#x2021;" horiz-adv-x="467" 
d="M50 255h120v199h-120v114h120v141h126v-141h121v-114h-121v-199h121v-114h-121v-141h-126v141h-120v114z" />
    <glyph glyph-name="bullet" unicode="&#x2022;" horiz-adv-x="522" 
d="M52 303c0 116 94 210 209 210s209 -94 209 -210c0 -113 -94 -208 -209 -208s-209 95 -209 208z" />
    <glyph glyph-name="ellipsis" unicode="&#x2026;" horiz-adv-x="916" 
d="M848 75c0 -47 -39 -88 -89 -88c-48 0 -88 41 -88 88c0 50 40 90 88 90c50 0 89 -40 89 -90zM546 75c0 -47 -39 -88 -89 -88c-49 0 -88 41 -88 88c0 50 39 90 88 90c50 0 89 -40 89 -90zM245 75c0 -47 -40 -88 -89 -88s-88 41 -88 88c0 50 39 90 88 90s89 -40 89 -90z" />
    <glyph glyph-name="perthousand" unicode="&#x2030;" horiz-adv-x="1128" 
d="M147 494c0 -39 26 -65 61 -65s60 27 60 65c0 39 -25 65 -60 65s-61 -26 -61 -65zM39 494c0 94 77 167 169 167s169 -73 169 -167c0 -95 -77 -165 -170 -165s-168 73 -168 165zM602 155c0 -40 28 -66 63 -66s62 27 62 66c0 38 -27 64 -62 64s-63 -26 -63 -64zM274 0h-128
l454 649h129zM849 155c0 -40 28 -66 63 -66s62 27 62 66c0 38 -27 64 -62 64s-63 -26 -63 -64zM494 155c0 93 79 166 171 166c51 0 94 -22 123 -57c29 35 73 57 124 57c92 0 171 -73 171 -166c0 -96 -79 -166 -172 -166c-51 0 -94 21 -123 55c-29 -35 -73 -55 -124 -55
c-93 0 -170 73 -170 166z" />
    <glyph glyph-name="guilsinglleft" unicode="&#x2039;" horiz-adv-x="323" 
d="M306 102h-142l-138 195l140 200h141l-139 -201z" />
    <glyph glyph-name="guilsinglright" unicode="&#x203a;" horiz-adv-x="323" 
d="M159 102h-143l139 194l-139 201h142l139 -200z" />
    <glyph glyph-name="uni2042" unicode="&#x2042;" horiz-adv-x="839" 
d="M467 708v-105l97 32l33 -94l-99 -33l60 -83l-80 -59l-62 84l-62 -84l-80 59l59 83l-98 33l32 94l97 -32v105h103zM266 327v-105l97 32l33 -94l-99 -33l60 -83l-80 -59l-62 84l-62 -84l-80 59l59 83l-98 33l32 94l97 -32v105h103zM676 327v-105l97 32l33 -94l-99 -33
l60 -83l-80 -59l-62 84l-62 -84l-80 59l59 83l-98 33l32 94l97 -32v105h103z" />
    <glyph glyph-name="fraction" unicode="&#x2044;" horiz-adv-x="583" 
d="M128 0h-128l454 649h129z" />
    <glyph glyph-name="uni2051" unicode="&#x2051;" horiz-adv-x="430" 
d="M267 708v-105l97 32l33 -94l-99 -33l60 -83l-80 -59l-62 84l-62 -84l-80 59l59 83l-98 33l32 94l97 -32v105h103zM267 331v-105l97 32l33 -94l-99 -33l60 -83l-80 -59l-62 84l-62 -84l-80 59l59 83l-98 33l32 94l97 -32v105h103z" />
    <glyph glyph-name="uni2070" unicode="&#x2070;" horiz-adv-x="439" 
d="M163 525c0 -49 7 -100 56 -100s56 51 56 100s-7 100 -56 100s-56 -51 -56 -100zM47 525c0 45 8 92 36 130s73 63 136 63c64 0 109 -25 137 -63s36 -85 36 -130s-8 -92 -36 -130c-28 -37 -73 -63 -137 -63c-63 0 -108 26 -136 64c-28 37 -36 84 -36 129z" />
    <glyph glyph-name="uni2074" unicode="&#x2074;" horiz-adv-x="438" 
d="M47 411v112l164 186h121v-213h59v-85h-59v-71h-111v71h-174zM221 496v102l-91 -102h91z" />
    <glyph glyph-name="uni2075" unicode="&#x2075;" horiz-adv-x="405" 
d="M47 454l100 18c2 -27 26 -45 55 -45c27 0 46 15 46 40c0 32 -21 46 -50 46c-19 0 -36 -8 -47 -20l-92 26l44 190h231v-90h-165l-12 -52c17 13 45 20 71 20c80 0 130 -44 130 -119c0 -73 -55 -134 -156 -134c-86 0 -148 53 -155 120z" />
    <glyph glyph-name="uni2076" unicode="&#x2076;" horiz-adv-x="419" 
d="M360 701l-19 -88c-17 6 -41 11 -67 11c-46 0 -96 -17 -114 -71c21 18 51 28 82 28c72 0 130 -39 130 -116c0 -79 -65 -135 -161 -135c-93 0 -164 66 -164 170c0 136 98 215 221 215c31 0 61 -5 92 -14zM165 461c0 -24 20 -42 46 -42s47 18 47 42c0 26 -21 44 -47 44
s-46 -18 -46 -44z" />
    <glyph glyph-name="uni2077" unicode="&#x2077;" horiz-adv-x="405" 
d="M359 709v-92c-34 -29 -121 -112 -136 -277h-120c11 175 123 276 123 276h-179v93h312z" />
    <glyph glyph-name="uni2078" unicode="&#x2078;" horiz-adv-x="424" 
d="M212 563c27 1 40 18 40 34c0 14 -12 32 -40 32s-40 -18 -40 -32c0 -16 13 -33 40 -34zM212 418c36 0 49 21 49 39c0 17 -14 36 -49 36s-49 -19 -49 -36c0 -18 13 -39 49 -39zM212 332c-101 0 -161 44 -161 110c0 43 33 77 76 88c-42 12 -65 47 -65 83
c0 58 52 104 150 104c99 0 150 -46 150 -104c0 -36 -22 -71 -65 -83c41 -11 76 -44 76 -84c0 -68 -57 -114 -161 -114z" />
    <glyph glyph-name="uni2079" unicode="&#x2079;" horiz-adv-x="419" 
d="M66 345l17 88c16 -7 39 -11 62 -11c50 0 103 15 118 72c-21 -18 -52 -28 -84 -28c-65 0 -132 39 -132 116c0 79 61 136 161 136c94 0 163 -68 163 -171c0 -139 -94 -217 -214 -217c-30 0 -61 6 -91 15zM251 586c0 24 -20 42 -46 42s-46 -18 -46 -42c0 -26 20 -43 46 -43
s46 17 46 43z" />
    <glyph glyph-name="uni2080" unicode="&#x2080;" horiz-adv-x="439" 
d="M163 110c0 -49 7 -100 56 -100s56 51 56 100s-7 100 -56 100s-56 -51 -56 -100zM47 110c0 45 8 92 36 130s73 63 136 63c64 0 109 -25 137 -63s36 -85 36 -130s-8 -92 -36 -130c-28 -37 -73 -63 -137 -63c-63 0 -108 26 -136 64c-28 37 -36 84 -36 129z" />
    <glyph glyph-name="uni2081" unicode="&#x2081;" horiz-adv-x="308" 
d="M241 -120h-115v212h-94v74c70 0 101 47 108 82h101v-368z" />
    <glyph glyph-name="uni2082" unicode="&#x2082;" horiz-adv-x="396" 
d="M154 103h-100c-2 8 -4 19 -4 27c0 68 49 128 149 128c94 0 148 -57 148 -125c0 -48 -31 -83 -84 -114l-67 -39c-3 -2 -5 -3 -5 -5h159v-95h-302v13c0 68 22 123 91 162l60 34c23 13 36 28 36 45c0 13 -9 34 -39 34s-45 -22 -45 -48c0 -9 2 -15 3 -17z" />
    <glyph glyph-name="uni2083" unicode="&#x2083;" horiz-adv-x="411" 
d="M47 -7l103 18c1 -25 21 -46 52 -46c29 0 47 16 47 37c0 28 -22 40 -46 40c-10 0 -20 -2 -29 -6l-35 75l79 47h-158v92h291v-93l-85 -51c63 -10 98 -50 98 -107c0 -66 -60 -127 -162 -127c-93 0 -150 60 -155 121z" />
    <glyph glyph-name="uni2084" unicode="&#x2084;" horiz-adv-x="438" 
d="M47 -49v112l164 186h121v-213h59v-85h-59v-71h-111v71h-174zM221 36v102l-91 -102h91z" />
    <glyph glyph-name="uni2085" unicode="&#x2085;" horiz-adv-x="405" 
d="M47 -6l100 18c2 -27 26 -45 55 -45c27 0 46 15 46 40c0 32 -21 46 -50 46c-19 0 -36 -8 -47 -20l-92 26l44 190h231v-90h-165l-12 -52c17 13 45 20 71 20c80 0 130 -44 130 -119c0 -73 -55 -134 -156 -134c-86 0 -148 53 -155 120z" />
    <glyph glyph-name="uni2086" unicode="&#x2086;" horiz-adv-x="419" 
d="M360 243l-19 -88c-17 6 -41 11 -67 11c-46 0 -96 -17 -114 -71c21 18 51 28 82 28c72 0 130 -39 130 -116c0 -79 -65 -135 -161 -135c-93 0 -164 66 -164 170c0 136 98 215 221 215c31 0 61 -5 92 -14zM165 3c0 -24 20 -42 46 -42s47 18 47 42c0 26 -21 44 -47 44
s-46 -18 -46 -44z" />
    <glyph glyph-name="uni2087" unicode="&#x2087;" horiz-adv-x="405" 
d="M359 248v-92c-34 -29 -121 -112 -136 -277h-120c11 175 123 276 123 276h-179v93h312z" />
    <glyph glyph-name="uni2088" unicode="&#x2088;" horiz-adv-x="424" 
d="M212 103c27 1 40 18 40 34c0 14 -12 32 -40 32s-40 -18 -40 -32c0 -16 13 -33 40 -34zM212 -42c36 0 49 21 49 39c0 17 -14 36 -49 36s-49 -19 -49 -36c0 -18 13 -39 49 -39zM212 -128c-101 0 -161 44 -161 110c0 43 33 77 76 88c-42 12 -65 47 -65 83
c0 58 52 104 150 104c99 0 150 -46 150 -104c0 -36 -22 -71 -65 -83c41 -11 76 -44 76 -84c0 -68 -57 -114 -161 -114z" />
    <glyph glyph-name="uni2089" unicode="&#x2089;" horiz-adv-x="419" 
d="M66 -113l17 88c16 -7 39 -11 62 -11c50 0 103 15 118 72c-21 -18 -52 -28 -84 -28c-65 0 -132 39 -132 116c0 79 61 136 161 136c94 0 163 -68 163 -171c0 -139 -94 -217 -214 -217c-30 0 -61 6 -91 15zM251 128c0 24 -20 42 -46 42s-46 -18 -46 -42c0 -26 20 -43 46 -43
s46 17 46 43z" />
    <glyph glyph-name="Euro" unicode="&#x20ac;" horiz-adv-x="674" 
d="M593 161l69 -114c-44 -35 -111 -63 -191 -63c-148 0 -270 78 -319 209h-91v102h70c-1 10 -1 16 -1 28c0 8 0 16 1 26h-70v101h91c49 131 174 214 317 214c76 0 127 -17 172 -45l-56 -120c-29 20 -70 29 -116 29c-57 0 -115 -23 -150 -78h244l-47 -101h-227
c-1 -10 -1 -17 -1 -26c0 -8 0 -18 1 -28h206l-45 -102h-125c34 -47 87 -70 146 -70c51 0 93 15 122 38z" />
    <glyph glyph-name="uni2113" unicode="&#x2113;" horiz-adv-x="439" 
d="M26 277c19 5 43 12 70 22v193c0 107 69 171 160 171c95 0 157 -59 157 -164c0 -97 -69 -203 -182 -275v-21c0 -60 43 -77 69 -77c51 0 75 12 92 22v-124c-12 -10 -43 -29 -111 -29c-109 0 -179 63 -185 167c-22 -7 -46 -12 -70 -16v131zM279 506c0 20 -11 31 -23 31
c-11 0 -25 -7 -25 -37v-114c28 32 48 72 48 120z" />
    <glyph glyph-name="trademark" unicode="&#x2122;" horiz-adv-x="884" 
d="M336 618h-99v-274h-102v274h-100v91h301v-91zM824 344h-100v222l-82 -222h-76l-83 218v-218h-99v365h142l80 -194l76 194h142v-365z" />
    <glyph glyph-name="Omega" unicode="&#x2126;" horiz-adv-x="774" 
d="M387 575c-93 0 -178 -65 -178 -178c0 -97 67 -162 145 -178v-219h-300v145h162c-95 39 -171 133 -171 266c0 191 160 314 342 314s342 -123 342 -314c0 -133 -75 -227 -171 -266h163v-145h-301v219c79 16 146 81 146 178c0 113 -85 178 -179 178z" />
    <glyph glyph-name="uni2160" unicode="&#x2160;" horiz-adv-x="493" 
d="M452 649v-131h-126v-387h126v-131h-410v131h127v387h-127v131h410z" />
    <glyph glyph-name="uni2161" unicode="&#x2161;" horiz-adv-x="793" 
d="M752 131v-131h-710v131h135v387h-135v131h710v-131h-134v-387h134zM334 518v-387h127v387h-127z" />
    <glyph glyph-name="uni2162" unicode="&#x2162;" horiz-adv-x="1067" 
d="M1026 131v-131h-984v131h135v387h-135v131h984v-131h-134v-387h134zM334 518v-387h122v387h-122zM613 518v-387h122v387h-122z" />
    <glyph glyph-name="uni2163" unicode="&#x2163;" horiz-adv-x="1077" 
d="M1036 131v-131h-994v131h132v387h-132v131h994v-131h-104l-121 -387h225zM331 518v-387h200l-124 387h-76zM673 179l99 339h-200z" />
    <glyph glyph-name="uni2164" unicode="&#x2164;" horiz-adv-x="810" 
d="M769 649v-131h-104l-120 -387h223v-131h-726v131h223l-124 387h-99v131h727zM407 179l99 339h-200z" />
    <glyph glyph-name="uni2165" unicode="&#x2165;" horiz-adv-x="1073" 
d="M1031 131v-131h-989v131h223l-124 387h-99v131h989v-131h-133v-387h133zM666 518l-120 -387h195v387h-75zM407 179l99 339h-200z" />
    <glyph glyph-name="uni2166" unicode="&#x2166;" horiz-adv-x="1348" 
d="M1306 131v-131h-1264v131h223l-124 387h-99v131h1264v-131h-133v-387h133zM1016 131v387h-118v-387h118zM666 518l-120 -387h195v387h-75zM407 179l99 339h-200z" />
    <glyph glyph-name="uni2167" unicode="&#x2167;" horiz-adv-x="1619" 
d="M1578 131v-131h-1536v131h223l-124 387h-99v131h1535v-131h-132v-387h133zM665 518l-120 -387h196v387h-76zM1171 518v-387h117v387h-117zM898 518v-387h116v387h-116zM407 179l99 339h-200z" />
    <glyph glyph-name="uni2168" unicode="&#x2168;" horiz-adv-x="1052" 
d="M1010 131v-131h-968v131h132v387h-132v131h968v-131h-103l-145 -197l143 -190h105zM555 322l-146 196h-78v-387h80zM596 518l63 -89l64 89h-127zM657 216l-62 -85h123z" />
    <glyph glyph-name="uni2169" unicode="&#x2169;" horiz-adv-x="787" 
d="M745 649v-131h-103l-145 -197l143 -190h105v-131h-703v131h104l144 191l-146 196h-102v131h703zM332 518l63 -89l63 89h-126zM392 216l-61 -85h122z" />
    <glyph glyph-name="uni216C" unicode="&#x216c;" horiz-adv-x="660" 
d="M619 297v-297h-577v131h111v387h-111v131h389v-131h-121v-387h161v166h148z" />
    <glyph glyph-name="uni216D" unicode="&#x216d;" horiz-adv-x="743" 
d="M701 252v-252h-152v55c-37 -40 -92 -71 -177 -71c-187 0 -330 139 -330 339s145 341 327 341c84 0 138 -30 174 -69v54h153v-247h-153c-9 44 -48 125 -166 125c-87 0 -184 -64 -184 -204c0 -125 88 -198 187 -198c116 0 158 82 169 127h152z" />
    <glyph glyph-name="uni216E" unicode="&#x216e;" horiz-adv-x="747" 
d="M382 649c199 0 323 -127 323 -325c0 -199 -125 -324 -324 -324h-339v131h117v387h-117v131h340zM316 131h53c99 1 177 64 177 193s-78 194 -178 194h-52v-387z" />
    <glyph glyph-name="uni216F" unicode="&#x216f;" horiz-adv-x="1042" 
d="M373 131v-131h-331v131h111v387h-111v131h324l155 -391l146 391h334v-131h-110v-387h110v-131h-341v131h75v282l-158 -404h-114l-158 400v-278h68z" />
    <glyph glyph-name="arrowleft" unicode="&#x2190;" horiz-adv-x="1080" 
d="M271 57l-285 244l285 246v-180h753v-131h-753v-179z" />
    <glyph glyph-name="arrowup" unicode="&#x2191;" horiz-adv-x="504" 
d="M273 800l243 -277h-177v-669h-131v669h-181z" />
    <glyph glyph-name="arrowright" unicode="&#x2192;" horiz-adv-x="1114" 
d="M1084 301l-314 -247v182h-749v131h749v182z" />
    <glyph glyph-name="arrowdown" unicode="&#x2193;" horiz-adv-x="492" 
d="M479 131l-245 -279l-248 279h183v668h131v-668h179z" />
    <glyph glyph-name="uni2196" unicode="&#x2196;" horiz-adv-x="877" 
d="M69 708h352l-130 -131l499 -498l-92 -92l-499 498l-130 -131v354z" />
    <glyph glyph-name="uni2197" unicode="&#x2197;" horiz-adv-x="749" 
d="M310 708h352v-354l-130 131l-499 -498l-93 92l499 499z" />
    <glyph glyph-name="uni2198" unicode="&#x2198;" horiz-adv-x="850" 
d="M763 1h-352l129 130l-498 499l92 92l499 -498l130 131v-354z" />
    <glyph glyph-name="uni2199" unicode="&#x2199;" horiz-adv-x="740" 
d="M384 1h-352v354l130 -131l499 498l92 -92l-499 -498z" />
    <glyph glyph-name="uni21A9" unicode="&#x21a9;" horiz-adv-x="874" 
d="M252 24l-284 244l284 246v-182h359c72 0 115 43 115 92c0 53 -43 91 -115 91h-204v131h210c146 0 246 -95 246 -222c0 -129 -97 -224 -246 -224h-365v-176z" />
    <glyph glyph-name="uni21B0" unicode="&#x21b0;" horiz-adv-x="819" 
d="M316 235l-284 245l284 245v-180h427v-545h-131v414h-296v-179z" />
    <glyph glyph-name="uni21B1" unicode="&#x21b1;" horiz-adv-x="764" 
d="M166 0h-131v545h432v180l284 -245l-284 -245v179h-301v-414z" />
    <glyph glyph-name="uni21B2" unicode="&#x21b2;" horiz-adv-x="777" 
d="M570 709h131v-545h-431v-180l-285 246l285 244v-179h300v414z" />
    <glyph glyph-name="uni21B3" unicode="&#x21b3;" horiz-adv-x="857" 
d="M499 474l284 -244l-284 -246v180h-432v545h131v-414h301v179z" />
    <glyph glyph-name="uni21B4" unicode="&#x21b4;" horiz-adv-x="792" 
d="M64 578v131h558v-449h180l-242 -275l-246 275h177v318h-427z" />
    <glyph glyph-name="uni21C6" unicode="&#x21c6;" horiz-adv-x="1197" 
d="M1142 158l-284 -244v179h-757v131h757v180zM353 320l-284 244l284 246v-183h756v-131h-756v-176z" />
    <glyph glyph-name="partialdiff" unicode="&#x2202;" horiz-adv-x="626" 
d="M255 580c-28 0 -82 -3 -148 -35l-54 123c76 41 152 52 210 52c130 0 327 -61 327 -372c0 -199 -91 -364 -297 -364c-135 0 -261 84 -261 248c0 150 129 230 242 230c99 0 138 -34 156 -55c-12 131 -87 173 -175 173zM311 335c-85 0 -125 -48 -125 -109
c0 -64 58 -102 112 -102c97 0 130 83 136 163c-28 28 -66 48 -123 48z" />
    <glyph glyph-name="Delta" unicode="&#x2206;" horiz-adv-x="705" 
d="M0 0l266 709h173l266 -709h-705zM352 539l-136 -391h273z" />
    <glyph glyph-name="product" unicode="&#x220f;" horiz-adv-x="685" 
d="M609 0h-159v563h-215v-563h-158v709h532v-709z" />
    <glyph glyph-name="summation" unicode="&#x2211;" horiz-adv-x="571" 
d="M32 0v145l246 208l-246 212v144h523v-147h-305l242 -209l-251 -206h314v-147h-523z" />
    <glyph glyph-name="minus" unicode="&#x2212;" horiz-adv-x="593" 
d="M547 237h-501v124h501v-124z" />
    <glyph glyph-name="uni2215" unicode="&#x2215;" horiz-adv-x="464" 
d="M464 662l-329 -676h-135l328 676h136z" />
    <glyph glyph-name="uni2219" unicode="&#x2219;" horiz-adv-x="293" 
d="M57 322c0 51 42 91 94 91s94 -40 94 -91c0 -53 -42 -92 -94 -92s-94 39 -94 92z" />
    <glyph glyph-name="radical" unicode="&#x221a;" horiz-adv-x="714" 
d="M744 762h-138l-253 -762h-132l-190 542h140l117 -346l225 689h231v-123z" />
    <glyph glyph-name="infinity" unicode="&#x221e;" horiz-adv-x="846" 
d="M422 188c-58 -60 -114 -92 -180 -92c-117 0 -201 83 -201 194s84 195 201 195c66 0 127 -34 183 -95c56 58 116 95 180 95c116 0 201 -84 201 -195s-85 -194 -201 -194c-69 0 -126 31 -183 92zM244 353c-40 0 -66 -28 -66 -64s26 -63 66 -63c33 0 66 25 96 61
c-32 38 -63 66 -96 66zM603 226c39 0 66 27 66 63s-27 64 -66 64c-34 0 -65 -27 -97 -64c31 -36 63 -63 97 -63z" />
    <glyph glyph-name="integral" unicode="&#x222b;" horiz-adv-x="370" 
d="M109 -9v520c0 122 75 199 198 199h58v-133h-53c-30 0 -50 -21 -50 -58v-520c0 -122 -75 -199 -198 -199h-59v133h54c29 0 50 21 50 58z" />
    <glyph glyph-name="approxequal" unicode="&#x2248;" horiz-adv-x="607" 
d="M497 479l79 -65c-36 -70 -99 -108 -169 -109c-37 0 -75 10 -113 31l-48 26c-16 9 -34 13 -50 13c-32 0 -63 -18 -84 -49l-81 65c36 70 99 109 169 109c36 0 74 -8 112 -29l47 -26c16 -9 34 -14 51 -14c33 0 64 15 87 48zM497 275l79 -66c-37 -70 -100 -108 -170 -108
c-37 0 -74 9 -112 30l-48 26c-16 8 -32 13 -49 13c-31 0 -62 -16 -85 -48l-81 65c37 70 100 108 171 108c34 0 73 -9 110 -29l47 -26c17 -9 34 -14 51 -14c33 0 64 15 87 49z" />
    <glyph glyph-name="notequal" unicode="&#x2260;" horiz-adv-x="607" 
d="M551 138h-275l-59 -96h-132l59 96h-88v122h163l48 79h-211v122h286l54 88h132l-54 -88h77v-122h-152l-48 -79h200v-122z" />
    <glyph glyph-name="lessequal" unicode="&#x2264;" horiz-adv-x="547" 
d="M52 164h439v-124h-439v124zM52 322v120l439 130v-123l-266 -65l266 -66v-126z" />
    <glyph glyph-name="greaterequal" unicode="&#x2265;" horiz-adv-x="547" 
d="M56 164h439v-124h-439v124zM495 442v-120l-439 -130v123l266 65l-266 67v125z" />
    <glyph glyph-name="dotmath" unicode="&#x22c5;" horiz-adv-x="293" 
d="M57 322c0 51 42 91 94 91s94 -40 94 -91c0 -53 -42 -92 -94 -92s-94 39 -94 92z" />
    <glyph glyph-name="uni24C5" unicode="&#x24c5;" horiz-adv-x="813" 
d="M125 354c0 -161 122 -288 281 -288s282 127 282 288s-123 289 -282 289s-281 -128 -281 -289zM36 354c0 204 166 371 370 371s371 -167 371 -371s-167 -370 -371 -370s-370 166 -370 370zM385 372h44c32 0 53 18 53 48s-21 49 -53 49h-44v-97zM450 288h-65v-134h-104v399
h169c77 0 137 -60 137 -133s-60 -132 -137 -132z" />
    <glyph glyph-name="filledbox" unicode="&#x25a0;" horiz-adv-x="901" 
d="M97 0v709h708v-709h-708z" />
    <glyph glyph-name="H22073" unicode="&#x25a1;" horiz-adv-x="901" 
d="M805 0h-708v709h708v-709zM227 579v-450h444v450h-444z" />
    <glyph glyph-name="triagup" unicode="&#x25b2;" horiz-adv-x="839" 
d="M421 725l418 -725h-839z" />
    <glyph glyph-name="uni25B3" unicode="&#x25b3;" horiz-adv-x="838" 
d="M419 725l419 -725h-838zM611 130l-192 333l-192 -333h384z" />
    <glyph glyph-name="lozenge" unicode="&#x25ca;" horiz-adv-x="648" 
d="M201 354l123 -212l123 212l-123 213zM26 354l210 355h176l210 -355l-210 -354h-176z" />
    <glyph glyph-name="circle" unicode="&#x25cb;" horiz-adv-x="804" 
d="M32 354c0 205 165 371 370 371s371 -166 371 -371s-166 -370 -371 -370s-370 165 -370 370zM162 354c0 -132 108 -241 240 -241s238 109 238 241s-106 242 -238 242s-240 -110 -240 -242z" />
    <glyph glyph-name="H18533" unicode="&#x25cf;" horiz-adv-x="804" 
d="M32 354c0 205 165 371 370 371s371 -166 371 -371s-166 -370 -371 -370s-370 165 -370 370z" />
    <glyph glyph-name="uni262E" unicode="&#x262e;" horiz-adv-x="812" 
d="M776 354c0 -205 -165 -370 -370 -370c-204 0 -370 165 -370 370s166 371 370 371c205 0 370 -166 370 -371zM646 354c0 113 -77 208 -179 236v-170l169 -132c7 21 10 43 10 66zM164 354c0 -23 3 -44 9 -64l167 130v169c-101 -29 -176 -124 -176 -235zM467 118
c40 10 76 32 106 60l-106 87v-147zM235 181c30 -29 65 -51 105 -62v146z" />
    <glyph glyph-name="uni2713" unicode="&#x2713;" horiz-adv-x="928" 
d="M916 633l-606 -649l-298 329l95 89l207 -226l510 549z" />
    <glyph glyph-name="uni2715" unicode="&#x2715;" horiz-adv-x="755" 
d="M649 -5l-273 270l-269 -270l-91 91l268 269l-268 266l91 90l268 -265l264 265l91 -90l-264 -265l273 -270z" />
    <glyph glyph-name="uni2780" unicode="&#x2780;" horiz-adv-x="822" 
d="M129 354c0 -161 123 -288 282 -288c158 0 281 127 281 288s-123 289 -281 289c-159 0 -282 -128 -282 -289zM41 354c0 204 165 371 370 371c204 0 370 -167 370 -371s-166 -370 -370 -370c-205 0 -370 166 -370 370zM488 172h-115v212h-94v74c70 0 101 47 108 82h101
v-368z" />
    <glyph glyph-name="uni2781" unicode="&#x2781;" horiz-adv-x="822" 
d="M129 354c0 -161 123 -288 282 -288c158 0 281 127 281 288s-123 289 -281 289c-159 0 -282 -128 -282 -289zM41 354c0 204 165 371 370 371c204 0 370 -167 370 -371s-166 -370 -370 -370c-205 0 -370 166 -370 370zM363 407h-100c-2 8 -4 19 -4 27c0 68 49 128 149 128
c94 0 148 -57 148 -125c0 -48 -31 -83 -84 -114l-67 -39c-3 -2 -5 -3 -5 -5h159v-95h-302v13c0 68 22 123 91 162l60 34c23 13 36 28 36 45c0 13 -9 34 -39 34s-45 -22 -45 -48c0 -9 2 -15 3 -17z" />
    <glyph glyph-name="uni2782" unicode="&#x2782;" horiz-adv-x="822" 
d="M129 354c0 -161 123 -288 282 -288c158 0 281 127 281 288s-123 289 -281 289c-159 0 -282 -128 -282 -289zM41 354c0 204 165 371 370 371c204 0 370 -167 370 -371s-166 -370 -370 -370c-205 0 -370 166 -370 370zM254 277l103 18c1 -25 21 -46 52 -46
c29 0 47 16 47 37c0 28 -22 40 -46 40c-10 0 -20 -2 -29 -6l-35 75l79 47h-158v92h291v-93l-85 -51c63 -10 98 -50 98 -107c0 -66 -60 -127 -162 -127c-93 0 -150 60 -155 121z" />
    <glyph glyph-name="uni2783" unicode="&#x2783;" horiz-adv-x="822" 
d="M129 354c0 -161 123 -288 282 -288c158 0 281 127 281 288s-123 289 -281 289c-159 0 -282 -128 -282 -289zM41 354c0 204 165 371 370 371c204 0 370 -167 370 -371s-166 -370 -370 -370c-205 0 -370 166 -370 370zM230 249v112l164 186h121v-213h59v-85h-59v-71h-111
v71h-174zM404 334v102l-91 -102h91z" />
    <glyph glyph-name="uni2784" unicode="&#x2784;" horiz-adv-x="822" 
d="M129 354c0 -161 123 -288 282 -288c158 0 281 127 281 288s-123 289 -281 289c-159 0 -282 -128 -282 -289zM41 354c0 204 165 371 370 371c204 0 370 -167 370 -371s-166 -370 -370 -370c-205 0 -370 166 -370 370zM249 276l100 18c2 -27 26 -45 55 -45
c27 0 46 15 46 40c0 32 -21 46 -50 46c-19 0 -36 -8 -47 -20l-92 26l44 190h231v-90h-165l-12 -52c17 13 45 20 71 20c80 0 130 -44 130 -119c0 -73 -55 -134 -156 -134c-86 0 -148 53 -155 120z" />
    <glyph glyph-name="uni2785" unicode="&#x2785;" horiz-adv-x="822" 
d="M129 354c0 -161 123 -288 282 -288c158 0 281 127 281 288s-123 289 -281 289c-159 0 -282 -128 -282 -289zM41 354c0 204 165 371 370 371c204 0 370 -167 370 -371s-166 -370 -370 -370c-205 0 -370 166 -370 370zM549 534l-19 -88c-17 6 -41 11 -67 11
c-46 0 -96 -17 -114 -71c21 18 51 28 82 28c72 0 130 -39 130 -116c0 -79 -65 -135 -161 -135c-93 0 -164 66 -164 170c0 136 98 215 221 215c31 0 61 -5 92 -14zM354 294c0 -24 20 -42 46 -42s47 18 47 42c0 26 -21 44 -47 44s-46 -18 -46 -44z" />
    <glyph glyph-name="uni2786" unicode="&#x2786;" horiz-adv-x="822" 
d="M129 354c0 -161 123 -288 282 -288c158 0 281 127 281 288s-123 289 -281 289c-159 0 -282 -128 -282 -289zM41 354c0 204 165 371 370 371c204 0 370 -167 370 -371s-166 -370 -370 -370c-205 0 -370 166 -370 370zM564 529v-92c-34 -29 -121 -112 -136 -277h-120
c11 175 123 276 123 276h-179v93h312z" />
    <glyph glyph-name="uni2787" unicode="&#x2787;" horiz-adv-x="822" 
d="M129 354c0 -161 123 -288 282 -288c158 0 281 127 281 288s-123 289 -281 289c-159 0 -282 -128 -282 -289zM41 354c0 204 165 371 370 371c204 0 370 -167 370 -371s-166 -370 -370 -370c-205 0 -370 166 -370 370zM411 396c27 1 40 18 40 34c0 14 -12 32 -40 32
s-40 -18 -40 -32c0 -16 13 -33 40 -34zM411 251c36 0 49 21 49 39c0 17 -14 36 -49 36s-49 -19 -49 -36c0 -18 13 -39 49 -39zM411 165c-101 0 -161 44 -161 110c0 43 33 77 76 88c-42 12 -65 47 -65 83c0 58 52 104 150 104c99 0 150 -46 150 -104c0 -36 -22 -71 -65 -83
c41 -11 76 -44 76 -84c0 -68 -57 -114 -161 -114z" />
    <glyph glyph-name="uni2788" unicode="&#x2788;" horiz-adv-x="822" 
d="M129 354c0 -161 123 -288 282 -288c158 0 281 127 281 288s-123 289 -281 289c-159 0 -282 -128 -282 -289zM41 354c0 204 165 371 370 371c204 0 370 -167 370 -371s-166 -370 -370 -370c-205 0 -370 166 -370 370zM276 178l17 88c16 -7 39 -11 62 -11
c50 0 103 15 118 72c-21 -18 -52 -28 -84 -28c-65 0 -132 39 -132 116c0 79 61 136 161 136c94 0 163 -68 163 -171c0 -139 -94 -217 -214 -217c-30 0 -61 6 -91 15zM461 419c0 24 -20 42 -46 42s-46 -18 -46 -42c0 -26 20 -43 46 -43s46 17 46 43z" />
    <glyph glyph-name="uniE000" unicode="&#xe000;" horiz-adv-x="711" 
d="M223 -15l-242 275h180v449h558v-131h-427v-318h176z" />
    <glyph glyph-name="uni21B5" unicode="&#xe001;" horiz-adv-x="1125" 
d="M265 83l-233 271h164c0 205 166 371 371 371c60 0 119 -14 169 -41l-60 -116c-33 18 -70 27 -109 27c-132 0 -240 -109 -240 -241h170zM932 354c0 -205 -165 -370 -370 -370c-60 0 -118 15 -169 41l60 115c33 -17 70 -27 109 -27c131 0 237 109 237 241h-169l232 271
l233 -271h-163z" />
    <glyph glyph-name="uniE002" unicode="&#xe002;" horiz-adv-x="960" 
d="M478 354l232 271l233 -271h-161c0 -205 -165 -370 -370 -370s-371 165 -371 370s166 371 371 371c51 0 100 -10 145 -29l-51 -121c-28 13 -60 20 -94 20c-132 0 -240 -109 -240 -241s108 -241 240 -241c131 0 237 109 237 241h-171z" />
    <glyph glyph-name="uniFB00" unicode="&#xfb00;" horiz-adv-x="690" 
d="M677 369h-108v-369h-152v369h-175v-369h-152v369h-79v128h79v43c0 114 69 192 190 192c25 0 58 -4 72 -11v-124c-8 2 -22 5 -45 5c-26 0 -65 -12 -65 -62v-43h175v43c0 114 69 192 189 192c26 0 59 -3 73 -10v-125c-8 2 -23 5 -45 5c-27 0 -65 -12 -65 -62v-43h108v-128z
" />
    <glyph glyph-name="fi" unicode="&#xfb01;" horiz-adv-x="643" 
d="M425 369h-183v-369h-152v369h-79v128h79v43c0 114 69 192 190 192c25 0 56 -4 70 -11v-124c-7 2 -21 5 -43 5c-26 0 -65 -12 -65 -62v-43h335v-497h-152v369zM412 649c0 50 40 89 88 89c50 0 90 -39 90 -89c0 -49 -40 -89 -90 -89c-48 0 -88 40 -88 89z" />
    <glyph glyph-name="fl" unicode="&#xfb02;" horiz-adv-x="644" 
d="M307 602c-26 0 -65 -12 -65 -62v-43h182v227h153v-724h-153v369h-182v-369h-152v369h-79v128h79v43c0 114 69 192 190 192c25 0 56 -4 70 -11v-124c-7 2 -21 5 -43 5z" />
    <glyph glyph-name="uniFB03" unicode="&#xfb03;" horiz-adv-x="973" 
d="M280 732c25 0 58 -5 72 -12v-123c-8 2 -22 5 -45 5c-29 0 -65 -12 -65 -62v-43h175v43c0 114 69 192 189 192c26 0 59 -4 73 -11v-124c-8 2 -23 5 -45 5c-27 0 -65 -12 -65 -62v-43h339v-497h-153v369h-186v-369h-152v369h-175v-369h-152v369h-79v128h79v43
c0 114 69 192 190 192zM742 649c0 50 40 89 89 89c50 0 89 -39 89 -89c0 -49 -39 -89 -89 -89c-49 0 -89 40 -89 89z" />
    <glyph glyph-name="uniFB04" unicode="&#xfb04;" horiz-adv-x="975" 
d="M307 602c-26 0 -65 -12 -65 -62v-43h175v43c0 114 69 192 189 192c26 0 59 -4 73 -11v-124c-8 2 -23 5 -45 5c-27 0 -65 -12 -65 -62v-43h187v227h152v-724h-152v369h-187v-369h-152v369h-175v-369h-152v369h-79v128h79v43c0 114 69 192 190 192c25 0 58 -4 72 -11v-124
c-8 2 -22 5 -45 5z" />
    <glyph glyph-name="uniFEFF" unicode="&#xfeff;" horiz-adv-x="0" 
 />
    <glyph glyph-name="zero.numr" horiz-adv-x="439" 
d="M163 465c0 -49 7 -100 56 -100s56 51 56 100s-7 100 -56 100s-56 -51 -56 -100zM47 465c0 45 8 92 36 130s73 63 136 63c64 0 109 -25 137 -63s36 -85 36 -130s-8 -92 -36 -130c-28 -37 -73 -63 -137 -63c-63 0 -108 26 -136 64c-28 37 -36 84 -36 129z" />
    <glyph glyph-name="one.numr" horiz-adv-x="317" 
d="M241 281h-115v212h-94v74c70 0 101 47 108 82h101v-368z" />
    <glyph glyph-name="two.numr" horiz-adv-x="396" 
d="M154 503h-100c-2 8 -4 19 -4 27c0 68 49 128 149 128c94 0 148 -57 148 -125c0 -48 -31 -83 -84 -114l-67 -39c-3 -2 -5 -3 -5 -5h159v-95h-302v13c0 68 22 123 91 162l60 34c23 13 36 28 36 45c0 13 -9 34 -39 34s-45 -22 -45 -48c0 -9 2 -15 3 -17z" />
    <glyph glyph-name="three.numr" horiz-adv-x="411" 
d="M47 392l103 18c1 -25 21 -46 52 -46c29 0 47 16 47 37c0 28 -22 40 -46 40c-10 0 -20 -2 -29 -6l-35 75l79 47h-158v92h291v-93l-85 -51c63 -10 98 -50 98 -107c0 -66 -60 -127 -162 -127c-93 0 -150 60 -155 121z" />
    <glyph glyph-name="four.numr" horiz-adv-x="438" 
d="M47 351v112l164 186h121v-213h59v-85h-59v-71h-111v71h-174zM221 436v102l-91 -102h91z" />
    <glyph glyph-name="five.numr" horiz-adv-x="402" 
d="M47 394l100 18c2 -27 26 -45 55 -45c27 0 46 15 46 40c0 32 -21 46 -50 46c-19 0 -36 -8 -47 -20l-92 26l44 190h231v-90h-165l-12 -52c17 13 45 20 71 20c80 0 130 -44 130 -119c0 -73 -55 -134 -156 -134c-86 0 -148 53 -155 120z" />
    <glyph glyph-name="six.numr" horiz-adv-x="419" 
d="M360 641l-19 -88c-17 6 -41 11 -67 11c-46 0 -96 -17 -114 -71c21 18 51 28 82 28c72 0 130 -39 130 -116c0 -79 -65 -135 -161 -135c-93 0 -164 66 -164 170c0 136 98 215 221 215c31 0 61 -5 92 -14zM165 401c0 -24 20 -42 46 -42s47 18 47 42c0 26 -21 44 -47 44
s-46 -18 -46 -44z" />
    <glyph glyph-name="seven.numr" horiz-adv-x="405" 
d="M359 649v-92c-34 -29 -121 -112 -136 -277h-120c11 175 123 276 123 276h-179v93h312z" />
    <glyph glyph-name="eight.numr" horiz-adv-x="424" 
d="M212 503c27 1 40 18 40 34c0 14 -12 32 -40 32s-40 -18 -40 -32c0 -16 13 -33 40 -34zM212 358c36 0 49 21 49 39c0 17 -14 36 -49 36s-49 -19 -49 -36c0 -18 13 -39 49 -39zM212 272c-101 0 -161 44 -161 110c0 43 33 77 76 88c-42 12 -65 47 -65 83
c0 58 52 104 150 104c99 0 150 -46 150 -104c0 -36 -22 -71 -65 -83c41 -11 76 -44 76 -84c0 -68 -57 -114 -161 -114z" />
    <glyph glyph-name="nine.numr" horiz-adv-x="419" 
d="M66 285l17 88c16 -7 39 -11 62 -11c50 0 103 15 118 72c-21 -18 -52 -28 -84 -28c-65 0 -132 39 -132 116c0 79 61 136 161 136c94 0 163 -68 163 -171c0 -139 -94 -217 -214 -217c-30 0 -61 6 -91 15zM251 526c0 24 -20 42 -46 42s-46 -18 -46 -42c0 -26 20 -43 46 -43
s46 17 46 43z" />
    <glyph glyph-name="zero.dnom" horiz-adv-x="439" 
d="M163 184c0 -49 7 -100 56 -100s56 51 56 100s-7 100 -56 100s-56 -51 -56 -100zM47 184c0 45 8 92 36 130s73 63 136 63c64 0 109 -25 137 -63s36 -85 36 -130s-8 -92 -36 -130c-28 -37 -73 -63 -137 -63c-63 0 -108 26 -136 64c-28 37 -36 84 -36 129z" />
    <glyph glyph-name="one.dnom" horiz-adv-x="308" 
d="M241 0h-115v212h-94v74c70 0 101 47 108 82h101v-368z" />
    <glyph glyph-name="two.dnom" horiz-adv-x="396" 
d="M154 223h-100c-2 8 -4 19 -4 27c0 68 49 128 149 128c94 0 148 -57 148 -125c0 -48 -31 -83 -84 -114l-67 -39c-3 -2 -5 -3 -5 -5h159v-95h-302v13c0 68 22 123 91 162l60 34c23 13 36 28 36 45c0 13 -9 34 -39 34s-45 -22 -45 -48c0 -9 2 -15 3 -17z" />
    <glyph glyph-name="three.dnom" horiz-adv-x="411" 
d="M47 112l103 18c1 -25 21 -46 52 -46c29 0 47 16 47 37c0 28 -22 40 -46 40c-10 0 -20 -2 -29 -6l-35 75l79 47h-158v92h291v-93l-85 -51c63 -10 98 -50 98 -107c0 -66 -60 -127 -162 -127c-93 0 -150 60 -155 121z" />
    <glyph glyph-name="four.dnom" horiz-adv-x="438" 
d="M47 71v112l164 186h121v-213h59v-85h-59v-71h-111v71h-174zM221 156v102l-91 -102h91z" />
    <glyph glyph-name="five.dnom" horiz-adv-x="405" 
d="M47 113l100 18c2 -27 26 -45 55 -45c27 0 46 15 46 40c0 32 -21 46 -50 46c-19 0 -36 -8 -47 -20l-92 26l44 190h231v-90h-165l-12 -52c17 13 45 20 71 20c80 0 130 -44 130 -119c0 -73 -55 -134 -156 -134c-86 0 -148 53 -155 120z" />
    <glyph glyph-name="six.dnom" horiz-adv-x="419" 
d="M360 362l-19 -88c-17 6 -41 11 -67 11c-46 0 -96 -17 -114 -71c21 18 51 28 82 28c72 0 130 -39 130 -116c0 -79 -65 -135 -161 -135c-93 0 -164 66 -164 170c0 136 98 215 221 215c31 0 61 -5 92 -14zM165 122c0 -24 20 -42 46 -42s47 18 47 42c0 26 -21 44 -47 44
s-46 -18 -46 -44z" />
    <glyph glyph-name="seven.dnom" horiz-adv-x="405" 
d="M359 369v-92c-34 -29 -121 -112 -136 -277h-120c11 175 123 276 123 276h-179v93h312z" />
    <glyph glyph-name="eight.dnom" horiz-adv-x="424" 
d="M212 223c27 1 40 18 40 34c0 14 -12 32 -40 32s-40 -18 -40 -32c0 -16 13 -33 40 -34zM212 78c36 0 49 21 49 39c0 17 -14 36 -49 36s-49 -19 -49 -36c0 -18 13 -39 49 -39zM212 -8c-101 0 -161 44 -161 110c0 43 33 77 76 88c-42 12 -65 47 -65 83c0 58 52 104 150 104
c99 0 150 -46 150 -104c0 -36 -22 -71 -65 -83c41 -11 76 -44 76 -84c0 -68 -57 -114 -161 -114z" />
    <glyph glyph-name="nine.dnom" horiz-adv-x="419" 
d="M66 5l17 88c16 -7 39 -11 62 -11c50 0 103 15 118 72c-21 -18 -52 -28 -84 -28c-65 0 -132 39 -132 116c0 79 61 136 161 136c94 0 163 -68 163 -171c0 -139 -94 -217 -214 -217c-30 0 -61 6 -91 15zM251 246c0 24 -20 42 -46 42s-46 -18 -46 -42c0 -26 20 -43 46 -43
s46 17 46 43z" />
    <glyph glyph-name="space.frac" horiz-adv-x="49" 
 />
    <glyph glyph-name="a.ordn" horiz-adv-x="422" 
d="M50 397c0 61 47 96 104 105l81 12c18 3 25 12 25 24c0 19 -17 35 -49 35c-36 0 -56 -25 -58 -49l-96 20c5 47 49 116 155 116c114 0 156 -64 156 -136v-170c0 -26 3 -47 4 -54h-100c-1 5 -3 18 -3 38c-19 -30 -52 -48 -97 -48c-77 0 -122 51 -122 107zM200 369
c29 0 60 15 60 67v15l-62 -10c-22 -3 -38 -14 -38 -37c0 -18 11 -35 40 -35z" />
    <glyph glyph-name="b.ordn" horiz-adv-x="506" 
d="M188 300h-108v507h110v-189c14 21 52 40 99 40c101 0 162 -77 162 -182c0 -107 -70 -184 -166 -184c-46 0 -81 21 -97 46v-38zM341 475c0 57 -37 83 -76 83c-40 0 -77 -26 -77 -83c0 -56 37 -83 77 -83c39 0 76 26 76 83z" />
    <glyph glyph-name="c.ordn" horiz-adv-x="461" 
d="M243 558c-44 0 -78 -31 -78 -84s36 -82 79 -82c38 0 62 23 69 49l98 -28c-15 -63 -73 -123 -167 -123c-104 0 -189 76 -189 184c0 109 82 186 185 186c96 0 154 -60 169 -123l-99 -29c-8 26 -28 50 -67 50z" />
    <glyph glyph-name="d.ordn" horiz-adv-x="509" 
d="M427 807v-445c0 -26 1 -47 2 -62h-106c-1 3 -3 19 -3 31c-16 -22 -51 -39 -91 -39c-98 0 -174 76 -174 184c0 104 71 182 169 182c60 0 85 -22 93 -34v183h110zM166 475c0 -56 37 -83 77 -83c39 0 76 26 76 83s-37 83 -76 83c-40 0 -77 -26 -77 -83z" />
    <glyph glyph-name="e.ordn" horiz-adv-x="451" 
d="M159 517h135c-2 24 -18 56 -68 56c-43 0 -65 -32 -67 -56zM301 426l93 -25c-17 -60 -72 -111 -161 -111c-97 0 -183 68 -183 186c0 112 84 184 175 184c108 0 176 -66 176 -179c0 -15 -2 -32 -2 -35h-242c3 -36 37 -63 77 -63c36 0 57 17 67 43z" />
    <glyph glyph-name="f.ordn" horiz-adv-x="341" 
d="M290 556h-75v-256h-110v256h-55v93h55v28c0 79 48 136 135 136c17 0 41 -2 51 -7v-91c-7 2 -16 4 -31 4c-19 0 -45 -9 -45 -42v-28h75v-93z" />
    <glyph glyph-name="g.ordn" horiz-adv-x="467" 
d="M55 280l97 28c8 -32 35 -53 74 -53c51 0 84 25 84 87v10c-13 -18 -42 -37 -92 -37c-93 0 -163 72 -163 170c0 91 67 171 163 171c57 0 86 -26 95 -43v36h106v-304c0 -101 -57 -188 -188 -188c-102 0 -166 62 -176 123zM238 411c42 0 72 28 72 74c0 45 -34 73 -72 73
c-37 0 -72 -28 -72 -73c0 -46 32 -74 72 -74z" />
    <glyph glyph-name="h.ordn" horiz-adv-x="492" 
d="M192 505v-205h-112v507h112v-179c21 21 57 30 87 30c92 0 133 -63 133 -139v-219h-111v200c0 33 -18 58 -54 58c-32 0 -53 -23 -55 -53z" />
    <glyph glyph-name="i.ordn" horiz-adv-x="288" 
d="M200 300h-112v349h112v-349zM80 753c0 36 29 64 64 64s64 -28 64 -64c0 -35 -29 -64 -64 -64s-64 29 -64 64z" />
    <glyph glyph-name="j.ordn" horiz-adv-x="337" 
d="M137 289v360h112v-373c0 -70 -46 -119 -118 -119c-32 0 -55 7 -61 9v93c4 -1 17 -4 33 -4c24 0 34 13 34 34zM129 753c0 36 29 64 64 64s64 -28 64 -64c0 -35 -29 -64 -64 -64s-64 29 -64 64z" />
    <glyph glyph-name="k.ordn" horiz-adv-x="474" 
d="M436 649l-135 -146l138 -203h-135l-80 120l-32 -35v-85h-112v507h112v-271l101 113h143z" />
    <glyph glyph-name="l.ordn" horiz-adv-x="272" 
d="M192 300h-112v507h112v-507z" />
    <glyph glyph-name="m.ordn" horiz-adv-x="707" 
d="M192 300h-112v349h107v-40c17 31 62 51 99 51c51 0 86 -21 104 -54c27 38 59 54 107 54c66 0 130 -39 130 -134v-226h-107v200c0 32 -17 57 -54 57c-36 0 -55 -27 -55 -57v-200h-110v200c0 32 -17 57 -54 57c-36 0 -55 -27 -55 -57v-200z" />
    <glyph glyph-name="n.ordn" horiz-adv-x="492" 
d="M192 500v-200h-112v349h108v-39c18 32 61 48 97 48c88 0 127 -63 127 -139v-219h-111v200c0 33 -18 58 -54 58c-34 0 -55 -25 -55 -58z" />
    <glyph glyph-name="o.ordn" horiz-adv-x="482" 
d="M241 392c39 0 76 26 76 83s-37 83 -76 83c-38 0 -75 -26 -75 -83c0 -56 37 -83 75 -83zM241 660c104 0 186 -77 186 -185c0 -109 -82 -185 -186 -185s-186 76 -186 185c0 108 82 185 186 185z" />
    <glyph glyph-name="p.ordn" horiz-adv-x="506" 
d="M192 167h-112v482h108v-34c14 22 52 43 101 43c101 0 162 -77 162 -182c0 -107 -70 -184 -166 -184c-44 0 -77 15 -93 33v-158zM343 475c0 57 -37 83 -76 83c-40 0 -77 -26 -77 -83c0 -56 37 -83 77 -83c39 0 76 26 76 83z" />
    <glyph glyph-name="q.ordn" horiz-adv-x="507" 
d="M427 167h-109v159c-15 -20 -47 -34 -89 -34c-100 0 -174 76 -174 184c0 104 69 182 169 182c62 0 90 -28 97 -41v32h106v-482zM167 475c0 -56 37 -83 76 -83s77 26 77 83s-38 83 -77 83s-76 -26 -76 -83z" />
    <glyph glyph-name="r.ordn" horiz-adv-x="311" 
d="M306 649v-109c-11 3 -21 4 -31 4c-43 0 -83 -22 -83 -94v-150h-112v349h108v-45c15 33 53 48 83 48c16 0 24 -1 35 -3z" />
    <glyph glyph-name="s.ordn" horiz-adv-x="399" 
d="M55 400l94 15c1 -22 17 -44 52 -44c27 0 39 13 39 28c0 12 -8 21 -33 27l-38 8c-77 17 -106 60 -106 109c0 64 56 117 135 117c102 0 137 -64 140 -105l-91 -16c-3 23 -17 41 -47 41c-19 0 -36 -11 -36 -28c0 -14 11 -22 26 -25l45 -9c73 -14 109 -58 109 -110
c0 -60 -46 -118 -141 -118c-110 0 -145 71 -148 110z" />
    <glyph glyph-name="t.ordn" horiz-adv-x="328" 
d="M206 750v-101h67v-97h-67v-125c0 -28 15 -35 37 -35c11 0 22 1 30 2v-91c-5 -2 -24 -9 -58 -9c-74 0 -119 43 -119 113v145h-61v97h17c37 0 54 25 54 57v44h100z" />
    <glyph glyph-name="u.ordn" horiz-adv-x="470" 
d="M284 300c-2 7 -3 22 -3 35c-18 -30 -58 -43 -92 -43c-86 0 -134 63 -134 136v221h111v-196c0 -33 18 -58 54 -58c34 0 55 23 55 56v198h112v-287c0 -28 2 -52 3 -62h-106z" />
    <glyph glyph-name="v.ordn" horiz-adv-x="427" 
d="M407 649l-132 -349h-112l-143 349h120l79 -211l72 211h116z" />
    <glyph glyph-name="w.ordn" horiz-adv-x="636" 
d="M263 649h118l65 -200l56 200h109l-108 -349h-110l-74 221l-73 -221h-112l-109 349h115l56 -199z" />
    <glyph glyph-name="x.ordn" horiz-adv-x="427" 
d="M28 300l119 174l-122 175h131l59 -91l59 91h124l-120 -171l124 -178h-129l-63 94l-60 -94h-122z" />
    <glyph glyph-name="y.ordn" horiz-adv-x="438" 
d="M206 167h-117l79 181l-147 301h124l83 -181l74 181h118z" />
    <glyph glyph-name="z.ordn" horiz-adv-x="405" 
d="M350 300h-295v98l151 157h-146v94h287v-91l-158 -163h161v-95z" />
    <glyph glyph-name="space.tf" 
 />
    <glyph glyph-name="numbersign.tf" 
d="M527 649l-33 -152h83v-106h-105l-28 -128h82v-107h-105l-33 -156h-115l33 156h-101l-33 -156h-115l33 156h-80v107h103l28 128h-81v106h103l33 152h115l-33 -152h101l33 152h115zM256 391l-28 -128h101l28 128h-101z" />
    <glyph glyph-name="dollar.tf" 
d="M365 -116h-115v107c-140 23 -204 127 -211 208l137 31c5 -58 45 -109 131 -109c50 0 86 24 86 62c0 29 -22 48 -62 57l-89 21c-111 27 -180 95 -180 190c0 111 84 188 188 206v108h115v-111c110 -24 159 -103 173 -170l-138 -37c-6 31 -23 82 -102 82
c-56 0 -84 -32 -84 -64c0 -27 20 -48 59 -57l87 -19c134 -30 186 -108 186 -198c0 -91 -65 -177 -181 -198v-109z" />
    <glyph glyph-name="percent.tf" 
d="M525 536v-101l-482 -328v100zM117 517c0 -33 21 -54 51 -54c29 0 50 22 50 54c0 34 -21 55 -50 55c-30 0 -51 -21 -51 -55zM23 517c0 80 66 142 145 142c78 0 143 -62 143 -142s-65 -140 -144 -140c-80 0 -144 62 -144 140zM368 133c0 -33 21 -54 51 -54
c29 0 50 22 50 54c0 34 -21 55 -50 55c-30 0 -51 -21 -51 -55zM274 133c0 80 66 142 145 142c78 0 143 -62 143 -142s-65 -140 -144 -140c-80 0 -144 62 -144 140z" />
    <glyph glyph-name="plus.tf" 
d="M39 360h190v195h128v-195h189v-124h-189v-195h-128v195h-190v124z" />
    <glyph glyph-name="comma.tf" 
d="M179 97c0 59 48 103 110 103c78 0 120 -65 120 -138c0 -171 -122 -244 -210 -254v78c47 9 108 53 110 120c-5 -5 -17 -8 -31 -8c-60 0 -99 44 -99 99z" />
    <glyph glyph-name="period.tf" 
d="M180 104c0 62 51 113 113 113s114 -51 114 -113c0 -61 -52 -114 -114 -114s-113 53 -113 114z" />
    <glyph glyph-name="zero.tf" 
d="M188 324c0 -98 4 -202 106 -202c101 0 105 104 105 202c0 99 -4 201 -105 201c-102 0 -106 -102 -106 -201zM29 324c0 80 8 167 52 233c43 65 118 107 213 107c94 0 168 -40 212 -106c43 -66 52 -154 52 -234s-9 -169 -52 -234c-44 -66 -118 -106 -212 -106
c-95 0 -169 40 -213 106c-43 65 -52 154 -52 234z" />
    <glyph glyph-name="one.tf" 
d="M74 131h163v291h-146v105c97 1 157 56 168 122h136v-518h148v-131h-469v131z" />
    <glyph glyph-name="two.tf" 
d="M205 389l-148 1c-3 8 -6 34 -6 54c0 116 87 220 243 220c149 0 241 -97 241 -213c0 -84 -45 -153 -128 -202l-123 -73c-19 -12 -35 -25 -44 -44h300v-132h-493c0 119 34 217 153 286l106 62c51 30 71 57 71 100c0 41 -29 77 -87 77c-61 0 -91 -42 -91 -96
c0 -13 2 -27 6 -40z" />
    <glyph glyph-name="three.tf" 
d="M226 282l-68 104l160 131h-271v132h468v-122l-160 -124c100 -7 182 -87 182 -198c0 -115 -95 -219 -255 -219c-151 0 -247 97 -257 208l152 28c2 -57 43 -102 104 -102s97 41 97 89c0 62 -48 88 -94 88c-21 0 -43 -7 -58 -15z" />
    <glyph glyph-name="four.tf" 
d="M29 135v160l266 354h187v-382h91v-132h-91v-135h-157v135h-296zM325 267v214l-158 -214h158z" />
    <glyph glyph-name="five.tf" 
d="M49 185l146 30c3 -50 41 -97 105 -97c53 0 97 35 97 94c0 65 -49 96 -101 96c-44 0 -75 -22 -91 -42c-3 1 -138 44 -141 46l73 337h377v-132h-268l-26 -122c25 22 73 35 110 35c133 0 224 -77 224 -217c0 -121 -92 -229 -254 -229c-144 0 -243 99 -251 201z" />
    <glyph glyph-name="six.tf" 
d="M544 637l-41 -128c-31 12 -69 20 -107 20c-97 0 -190 -50 -207 -168c22 37 73 71 150 71c127 0 214 -89 214 -215c0 -133 -104 -232 -252 -232c-150 0 -265 111 -265 296c0 231 148 383 374 383c61 0 109 -12 134 -27zM202 211c0 -55 45 -94 97 -94c53 0 97 37 97 94
c0 58 -44 95 -97 95c-52 0 -97 -37 -97 -95z" />
    <glyph glyph-name="seven.tf" 
d="M552 649v-126c-45 -39 -236 -203 -263 -523h-164c26 336 242 517 242 517h-343v132h528z" />
    <glyph glyph-name="eight.tf" 
d="M293 388c57 1 83 37 83 76c0 34 -29 70 -83 70s-83 -36 -83 -70c0 -39 27 -75 83 -76zM293 113c64 0 97 42 97 81c0 40 -30 83 -97 83c-66 0 -96 -43 -96 -83c0 -39 33 -81 96 -81zM293 -15c-147 0 -250 77 -250 191c0 67 42 131 110 158c-67 24 -98 91 -98 142
c0 109 98 188 238 188c141 0 239 -79 239 -188c0 -51 -32 -118 -99 -142c68 -27 111 -91 111 -158c0 -114 -103 -191 -251 -191z" />
    <glyph glyph-name="nine.tf" 
d="M43 19l35 127c21 -11 68 -26 113 -26c99 0 187 45 197 160c-27 -40 -82 -63 -138 -63c-122 0 -219 88 -219 218c0 132 101 229 249 229c144 0 259 -107 259 -312c0 -226 -122 -367 -345 -367c-58 0 -116 14 -151 34zM367 440c0 54 -42 91 -93 91s-93 -37 -93 -91
s42 -91 93 -91s93 38 93 91z" />
    <glyph glyph-name="colon.tf" 
d="M185 86c0 59 49 108 108 108s109 -49 109 -108c0 -58 -50 -108 -109 -108s-108 50 -108 108zM185 405c0 59 49 108 108 108s109 -49 109 -108c0 -58 -50 -108 -109 -108s-108 50 -108 108z" />
    <glyph glyph-name="semicolon.tf" 
d="M185 94c0 55 44 96 103 96c72 0 112 -61 112 -129c0 -160 -114 -228 -197 -238v74c45 8 102 49 104 111c-5 -4 -17 -7 -29 -7c-57 0 -93 41 -93 93zM185 404c0 59 49 108 108 108s109 -49 109 -108c0 -58 -50 -108 -109 -108s-108 50 -108 108z" />
    <glyph glyph-name="less.tf" 
d="M71 244v108l439 224v-138l-288 -137l288 -139v-140z" />
    <glyph glyph-name="equal.tf" 
d="M540 339h-495v122h495v-122zM540 138h-495v122h495v-122z" />
    <glyph glyph-name="greater.tf" 
d="M516 353v-108l-439 -223v137l288 138l-288 139v140z" />
    <glyph glyph-name="cent.tf" 
d="M366 0h-115v84c-110 26 -190 115 -190 235c0 122 80 213 190 237v93h115v-92c96 -19 154 -85 172 -154l-130 -38c-10 35 -38 69 -94 69c-60 0 -108 -42 -108 -115s49 -113 110 -113c55 0 87 34 97 68l128 -38c-18 -70 -79 -137 -175 -155v-81z" />
    <glyph glyph-name="sterling.tf" 
d="M64 383h57c-8 24 -14 51 -14 84c0 98 76 197 217 197c156 0 208 -106 208 -188v-5l-131 -19v5c0 49 -23 83 -75 83c-41 0 -74 -25 -74 -78c0 -30 7 -53 17 -79h176v-110h-141c1 -6 1 -12 1 -18c0 -47 -17 -95 -62 -125h112c42 0 74 29 74 74l132 -8
c0 -113 -75 -196 -186 -196h-315v118c63 22 104 63 104 122c0 11 -1 22 -3 33h-97v110z" />
    <glyph glyph-name="currency.tf" 
d="M76 248c0 37 9 71 25 101l-71 72l91 90l74 -74c30 15 63 23 99 23c35 0 71 -8 98 -23l74 74l91 -90l-71 -72c16 -27 26 -64 26 -101c0 -38 -10 -72 -26 -102l71 -70l-91 -91l-73 74c-30 -15 -64 -23 -99 -23c-36 0 -69 8 -99 23l-74 -74l-91 91l72 71
c-16 27 -26 64 -26 101zM201 248c0 -53 38 -91 93 -91s93 38 93 91s-38 91 -93 91s-93 -38 -93 -91z" />
    <glyph glyph-name="yen.tf" 
d="M533 125h-167v-125h-147v125h-157v106h157v63h-157v106h85l-135 249h170l115 -236l115 236h163l-138 -249h96v-106h-167v-63h167v-106z" />
    <glyph glyph-name="section.tf" horiz-adv-x="590" 
d="M511 258c0 -62 -34 -102 -73 -126c48 -37 72 -87 72 -140c0 -121 -106 -197 -215 -197c-131 0 -213 75 -219 188l143 22c0 -58 34 -80 76 -80c38 0 63 24 63 57c0 20 -13 41 -36 51l-101 51c-75 38 -142 85 -142 177c0 63 33 103 73 126c-48 38 -71 87 -71 141
c0 120 106 196 216 196c129 0 212 -76 217 -188l-142 -22c0 59 -33 80 -75 80c-39 0 -64 -25 -64 -57c0 -20 13 -40 36 -50l101 -52c74 -38 141 -83 141 -177zM342 283l-102 54c-14 -13 -24 -28 -24 -45c0 -25 7 -41 33 -55l102 -54c13 12 25 27 25 45c0 23 -8 41 -34 55z
" />
    <glyph glyph-name="logicalnot.tf" 
d="M535 129h-130v195h-373v125h503v-320z" />
    <glyph glyph-name="plusminus.tf" 
d="M52 438h177v117h128v-117h178v-124h-178v-116h-128v116h-177v124zM52 164h483v-124h-483v124z" />
    <glyph glyph-name="multiply.tf" 
d="M457 43l-164 165l-164 -165l-90 92l163 164l-163 165l90 90l164 -165l164 165l90 -90l-164 -165l164 -164z" />
    <glyph glyph-name="divide.tf" 
d="M205 486c0 46 38 84 85 84s85 -38 85 -84s-38 -85 -85 -85s-85 39 -85 85zM41 237v124h505v-124h-505zM205 114c0 45 38 83 85 83s85 -38 85 -83c0 -46 -38 -85 -85 -85s-85 39 -85 85z" />
    <glyph glyph-name="florin.tf" 
d="M151 30l69 340h-93v126h118l17 82c23 114 115 163 198 163c50 0 65 -5 97 -16v-130c-21 5 -41 8 -67 8c-23 0 -66 -10 -78 -68l-8 -39h110v-126h-136l-77 -383c-23 -115 -116 -163 -198 -163c-50 0 -68 5 -100 15v131c20 -5 44 -8 70 -8c23 0 66 11 78 68z" />
    <glyph glyph-name="uni2007.tf" 
 />
    <glyph glyph-name="uni2008.tf" 
 />
    <glyph glyph-name="perthousand.tf" 
d="M535 606v-101l-493 -337v100zM105 536c0 -29 19 -49 45 -49s45 20 45 49c0 28 -19 48 -45 48s-45 -20 -45 -48zM23 536c0 70 58 125 127 125s127 -55 127 -125c0 -71 -58 -124 -127 -124c-71 0 -127 54 -127 124zM131 116c0 70 58 125 126 125c35 0 66 -14 89 -36
c23 22 55 36 89 36c69 0 127 -55 127 -125c0 -71 -58 -124 -127 -124c-35 0 -66 13 -89 35c-23 -22 -54 -35 -89 -35c-70 0 -126 54 -126 124zM435 164c-26 0 -45 -19 -45 -48s19 -49 45 -49s45 20 45 49c0 28 -19 48 -45 48zM257 164c-25 0 -45 -20 -45 -48
c0 -29 20 -49 45 -49c27 0 45 20 45 49c0 28 -18 48 -45 48z" />
    <glyph glyph-name="Euro.tf" 
d="M108 295c-1 13 -1 23 -1 28s0 13 1 26h-62v101h83c49 131 174 214 317 214c58 0 92 -8 127 -22l-38 -129c-24 10 -53 15 -89 15c-57 0 -115 -23 -150 -78h222l-28 -101h-225c-1 -13 -1 -21 -1 -26c0 -8 0 -14 1 -28h210l-27 -102h-147c34 -47 88 -69 146 -69
c36 0 66 5 90 15l36 -128c-27 -14 -77 -27 -126 -27c-147 0 -269 78 -318 209h-83v102h62z" />
    <glyph glyph-name="minus.tf" 
d="M544 237h-501v124h501v-124z" />
    <glyph glyph-name="approxequal.tf" 
d="M486 479l80 -65c-37 -70 -99 -108 -170 -109c-36 0 -74 10 -112 31l-48 26c-17 9 -34 13 -50 13c-32 0 -62 -17 -84 -49l-82 65c37 70 100 109 171 109c36 0 73 -9 110 -29l48 -26c17 -9 34 -14 51 -14c32 0 64 14 86 48zM486 275l80 -66c-37 -70 -100 -108 -171 -108
c-37 0 -72 9 -111 30l-48 26c-17 9 -34 13 -51 13c-31 0 -61 -17 -83 -48l-82 65c36 67 98 108 168 108c36 0 75 -9 113 -29l48 -26c17 -9 34 -14 51 -14c33 0 63 15 86 49z" />
    <glyph glyph-name="notequal.tf" 
d="M540 138h-275l-59 -96h-132l59 96h-88v122h163l48 79h-211v122h286l54 88h132l-54 -88h77v-122h-152l-48 -79h200v-122z" />
    <glyph glyph-name="lessequal.tf" 
d="M75 164h439v-124h-439v124zM75 322v120l439 130v-123l-266 -65l266 -66v-126z" />
    <glyph glyph-name="greaterequal.tf" 
d="M74 164h439v-124h-439v124zM513 442v-120l-439 -130v123l266 65l-266 67v125z" />
    <glyph glyph-name="parenleft.case" horiz-adv-x="324" 
d="M37 355c0 222 90 367 197 478l90 -75c-99 -118 -161 -229 -161 -403s62 -286 161 -403l-90 -75c-107 112 -197 256 -197 478z" />
    <glyph glyph-name="parenright.case" horiz-adv-x="324" 
d="M287 355c0 -222 -89 -366 -197 -478l-90 75c99 117 161 229 161 403s-62 285 -161 403l90 75c108 -111 197 -256 197 -478z" />
    <glyph glyph-name="hyphen.case" horiz-adv-x="390" 
d="M345 283h-300v137h300v-137z" />
    <glyph glyph-name="bracketleft.case" horiz-adv-x="331" 
d="M326 -118h-249v942h249v-113h-123v-713h123v-116z" />
    <glyph glyph-name="bracketright.case" horiz-adv-x="331" 
d="M255 -118h-250v116h124v713h-124v113h250v-942z" />
    <glyph glyph-name="braceleft.case" horiz-adv-x="385" 
d="M45 293v124c56 0 96 24 96 88v123c0 133 79 196 199 196h40v-113h-37c-37 0 -76 -20 -76 -82v-147c0 -61 -35 -108 -99 -127c63 -18 99 -66 99 -128v-147c0 -62 39 -82 76 -82h37v-113h-40c-120 0 -199 63 -199 197v123c0 64 -40 88 -96 88z" />
    <glyph glyph-name="braceright.case" horiz-adv-x="385" 
d="M340 417v-124c-56 0 -95 -24 -95 -88v-123c0 -134 -79 -197 -200 -197h-40v113h37c37 0 77 20 77 82v147c0 62 35 110 98 128c-64 19 -98 66 -98 127v147c0 62 -40 82 -77 82h-37v113h40c121 0 200 -63 200 -196v-123c0 -64 39 -88 95 -88z" />
    <glyph glyph-name="exclamdown.case" horiz-adv-x="318" 
d="M215 487l35 -487h-182l35 487h112zM73 632c0 48 38 86 86 86s87 -38 87 -86c0 -47 -39 -86 -87 -86s-86 39 -86 86z" />
    <glyph glyph-name="guillemotleft.case" horiz-adv-x="550" 
d="M306 152h-142l-138 195l140 200h141l-139 -201zM534 152h-143l-138 195l140 200h142l-139 -201z" />
    <glyph glyph-name="uni00AD.case" horiz-adv-x="390" 
d="M345 285h-300v137h300v-137z" />
    <glyph glyph-name="guillemotright.case" horiz-adv-x="550" 
d="M386 152h-142l138 194l-139 201h142l140 -200zM159 152h-143l139 194l-139 201h141l140 -200z" />
    <glyph glyph-name="questiondown.case" horiz-adv-x="520" 
d="M214 488h119c2 -14 4 -28 4 -44c0 -47 -17 -98 -74 -141l-50 -38c-27 -21 -37 -45 -37 -70c0 -39 29 -75 89 -75c61 0 92 44 92 94c0 13 -2 26 -5 38l143 -12c3 -14 4 -29 4 -43c0 -122 -97 -212 -234 -212c-163 0 -243 98 -243 198c0 80 37 136 95 180l38 28
c36 27 59 54 59 97zM186 633c0 48 39 86 86 86c48 0 86 -38 86 -86c0 -47 -38 -86 -86 -86c-47 0 -86 39 -86 86z" />
    <glyph glyph-name="endash.case" horiz-adv-x="636" 
d="M577 286h-517v132h517v-132z" />
    <glyph glyph-name="emdash.case" horiz-adv-x="1072" 
d="M1003 286h-933v132h933v-132z" />
    <glyph glyph-name="guilsinglleft.case" horiz-adv-x="323" 
d="M306 152h-142l-138 195l140 200h141l-139 -201z" />
    <glyph glyph-name="guilsinglright.case" horiz-adv-x="323" 
d="M159 152h-143l139 194l-139 201h142l139 -200z" />
    <glyph glyph-name="G.ss01" horiz-adv-x="777" 
d="M407 -15c-209 0 -371 151 -371 369c0 217 166 370 367 370c206 0 306 -130 332 -232l-156 -42c-10 42 -53 126 -176 126c-98 0 -205 -64 -205 -222c0 -145 94 -222 209 -222c75 0 153 35 170 110h-233v137h399c3 -21 3 -43 3 -65c-2 -181 -133 -329 -339 -329z" />
    <glyph glyph-name="a.ss02" horiz-adv-x="627" 
d="M184 249c0 -82 51 -132 114 -132c61 0 113 48 113 132c0 86 -51 131 -113 131c-65 0 -114 -45 -114 -131zM412 59v5c-22 -48 -72 -78 -134 -78c-146 0 -247 111 -247 264c0 148 95 262 242 262c89 0 128 -49 138 -72v57h147v-408c0 -46 3 -78 4 -89h-146
c-2 11 -4 38 -4 59z" />
    <glyph glyph-name="agrave.ss02" horiz-adv-x="627" 
d="M184 249c0 -82 51 -132 114 -132c61 0 113 48 113 132c0 86 -51 131 -113 131c-65 0 -114 -45 -114 -131zM412 59v5c-22 -48 -72 -78 -134 -78c-146 0 -247 111 -247 264c0 148 95 262 242 262c89 0 128 -49 138 -72v57h147v-408c0 -46 3 -78 4 -89h-146
c-2 11 -4 38 -4 59zM262 556l-142 151h173l93 -151h-124z" />
    <glyph glyph-name="aacute.ss02" horiz-adv-x="627" 
d="M469 707l-141 -151h-121l92 151h170zM184 249c0 -82 51 -132 114 -132c61 0 113 48 113 132c0 86 -51 131 -113 131c-65 0 -114 -45 -114 -131zM412 59v5c-22 -48 -72 -78 -134 -78c-146 0 -247 111 -247 264c0 148 95 262 242 262c89 0 128 -49 138 -72v57h147v-408
c0 -46 3 -78 4 -89h-146c-2 11 -4 38 -4 59z" />
    <glyph glyph-name="acircumflex.ss02" horiz-adv-x="627" 
d="M235 556h-113l113 151h143l114 -151h-116l-71 71zM184 249c0 -82 51 -132 114 -132c61 0 113 48 113 132c0 86 -51 131 -113 131c-65 0 -114 -45 -114 -131zM412 59v5c-22 -48 -72 -78 -134 -78c-146 0 -247 111 -247 264c0 148 95 262 242 262c89 0 128 -49 138 -72v57
h147v-408c0 -46 3 -78 4 -89h-146c-2 11 -4 38 -4 59z" />
    <glyph glyph-name="atilde.ss02" horiz-adv-x="627" 
d="M184 249c0 -82 51 -132 114 -132c61 0 113 48 113 132c0 86 -51 131 -113 131c-65 0 -114 -45 -114 -131zM412 59v5c-22 -48 -72 -78 -134 -78c-146 0 -247 111 -247 264c0 148 95 262 242 262c89 0 128 -49 138 -72v57h147v-408c0 -46 3 -78 4 -89h-146
c-2 11 -4 38 -4 59zM494 706v-20c0 -88 -47 -130 -112 -130c-30 0 -53 11 -76 23c-20 10 -37 21 -56 21c-20 0 -33 -13 -34 -43h-86v23c0 86 50 127 113 127c31 0 54 -11 76 -23c20 -12 37 -22 55 -22c22 0 34 15 35 44h85z" />
    <glyph glyph-name="adieresis.ss02" horiz-adv-x="627" 
d="M117 632c0 43 33 77 76 77s77 -34 77 -77s-34 -76 -77 -76s-76 33 -76 76zM338 632c0 43 33 77 76 77s77 -34 77 -77s-34 -76 -77 -76s-76 33 -76 76zM184 249c0 -82 51 -132 114 -132c61 0 113 48 113 132c0 86 -51 131 -113 131c-65 0 -114 -45 -114 -131zM412 59v5
c-22 -48 -72 -78 -134 -78c-146 0 -247 111 -247 264c0 148 95 262 242 262c89 0 128 -49 138 -72v57h147v-408c0 -46 3 -78 4 -89h-146c-2 11 -4 38 -4 59z" />
    <glyph glyph-name="aring.ss02" horiz-adv-x="627" 
d="M413 652c0 -66 -54 -111 -116 -111s-116 45 -116 111s54 113 116 113s116 -47 116 -113zM334 652c0 23 -16 38 -37 38s-37 -15 -37 -38s16 -38 37 -38s37 15 37 38zM184 249c0 -82 51 -132 114 -132c61 0 113 48 113 132c0 86 -51 131 -113 131c-65 0 -114 -45 -114 -131
zM412 59v5c-22 -48 -72 -78 -134 -78c-146 0 -247 111 -247 264c0 148 95 262 242 262c89 0 128 -49 138 -72v57h147v-408c0 -46 3 -78 4 -89h-146c-2 11 -4 38 -4 59z" />
    <glyph glyph-name="r.ss03" horiz-adv-x="431" 
d="M219 497v-497h-152v497h152zM220 407c0 56 43 99 98 99c56 0 99 -43 99 -99c0 -55 -43 -98 -99 -98c-55 0 -98 43 -98 98z" />
    <glyph glyph-name="ampersand.ss04" horiz-adv-x="722" 
d="M383 228v127h297v-127h-66c-6 -131 -105 -243 -284 -243c-175 0 -278 94 -278 218c0 97 74 165 144 182c-61 19 -109 81 -109 149c0 109 95 190 230 190c167 0 234 -97 240 -197l-151 -16c-1 49 -28 88 -88 88c-38 0 -79 -26 -79 -71c0 -57 52 -78 84 -78h11v-127h-4
c-54 0 -119 -29 -119 -106c0 -49 37 -101 123 -101c70 0 118 39 122 112h-73z" />
    <glyph glyph-name="one.ss05" horiz-adv-x="498" 
d="M36 131h147v291h-146v105c97 1 156 56 168 122h135v-518h144v-131h-448v131z" />
    <glyph glyph-name="registered.ss06" horiz-adv-x="429" 
d="M22 526c0 106 86 192 192 192s193 -86 193 -192s-87 -192 -193 -192s-192 86 -192 192zM77 526c0 -78 60 -139 137 -139s137 61 137 139s-60 139 -137 139s-137 -61 -137 -139zM236 431l-26 65h-11v-65h-58v196h86c39 0 69 -28 69 -66c0 -24 -13 -44 -34 -55l36 -75h-62z
M199 542h14c15 0 25 8 25 19c0 15 -10 19 -25 19h-14v-38z" />
    <glyph glyph-name="caron.alt" horiz-adv-x="217" 
d="M196 709l-75 -207h-99l29 207h145z" />
    <glyph glyph-name="commaaccent" horiz-adv-x="213" 
d="M22 698c0 38 32 70 79 70c54 0 90 -43 90 -93c0 -113 -88 -135 -147 -135h-8v52c56 0 85 17 88 45c0 -1 -12 -7 -31 -7c-47 0 -71 30 -71 68z" />
    <glyph glyph-name="commaturn" horiz-adv-x="193" 
d="M181 614c0 -38 -32 -69 -79 -69c-53 0 -90 41 -90 92c0 100 88 134 147 134h8v-51c-56 0 -85 -24 -88 -45c4 2 14 7 31 7c47 0 71 -31 71 -68z" />
    <glyph glyph-name="dieresis.narrow" horiz-adv-x="352" 
d="M11 633c0 41 32 74 75 74c41 0 74 -33 74 -74c0 -43 -33 -75 -74 -75c-43 0 -75 32 -75 75zM192 633c0 41 32 74 73 74c42 0 75 -33 75 -74c0 -43 -33 -75 -75 -75c-41 0 -73 32 -73 75z" />
    <glyph glyph-name="dieresis.uc.narrow" horiz-adv-x="375" 
d="M12 824c0 44 32 78 75 78c44 0 77 -34 77 -78c0 -43 -33 -75 -77 -75c-43 0 -75 32 -75 75zM210 824c0 44 33 78 76 78c44 0 77 -34 77 -78c0 -43 -33 -75 -77 -75c-43 0 -76 32 -76 75z" />
    <glyph glyph-name="grave.uc" horiz-adv-x="301" 
d="M155 759l-150 132h181l104 -132h-135z" />
    <glyph glyph-name="dieresis.uc" horiz-adv-x="463" 
d="M16 824c0 45 34 80 78 80c45 0 80 -35 80 -80c0 -44 -35 -77 -80 -77c-44 0 -78 33 -78 77zM289 824c0 45 33 80 78 80c44 0 79 -35 79 -80c0 -44 -35 -77 -79 -77c-45 0 -78 33 -78 77z" />
    <glyph glyph-name="macron.uc" horiz-adv-x="334" 
d="M323 771h-311v109h311v-109z" />
    <glyph glyph-name="acute.uc" horiz-adv-x="301" 
d="M296 891l-150 -132h-135l104 132h181z" />
    <glyph glyph-name="circumflex.uc" horiz-adv-x="416" 
d="M150 759h-135l122 132h145l124 -132h-141l-58 65z" />
    <glyph glyph-name="caron.uc" horiz-adv-x="416" 
d="M15 891h140l58 -65l58 65h135l-123 -132h-145z" />
    <glyph glyph-name="breve.uc" horiz-adv-x="367" 
d="M183 753c-112 0 -164 71 -167 138h113c1 -29 20 -50 54 -50c35 0 54 21 55 50h112c-2 -67 -54 -138 -167 -138z" />
    <glyph glyph-name="dotaccent.uc" horiz-adv-x="201" 
d="M12 841c0 49 39 87 89 87c49 0 89 -38 89 -87c0 -50 -40 -87 -89 -87c-50 0 -89 37 -89 87z" />
    <glyph glyph-name="ring.uc" horiz-adv-x="305" 
d="M293 880c0 -79 -66 -136 -141 -136c-74 0 -140 57 -140 136c0 80 66 137 140 137c75 0 141 -57 141 -137zM200 880c0 31 -22 48 -47 48c-27 0 -49 -17 -49 -48c0 -30 22 -47 49 -47c25 0 47 17 47 47z" />
    <glyph glyph-name="tilde.uc" horiz-adv-x="371" 
d="M360 895v-34c0 -73 -49 -110 -104 -110c-31 0 -57 12 -79 25l-5 3c-18 11 -33 20 -47 20c-13 0 -26 -9 -26 -29v-13h-87v33c0 73 49 108 103 108c32 0 57 -11 79 -24c20 -11 37 -22 52 -22s27 9 27 29v14h87z" />
    <glyph glyph-name="hungarumlaut.uc" horiz-adv-x="391" 
d="M199 891l-93 -132h-94l48 132h139zM380 891l-110 -132h-96l65 132h141z" />
    <glyph glyph-name="caron.alt.uc" horiz-adv-x="217" 
d="M205 709l-79 -217h-104l31 217h152z" />
    <glyph glyph-name="undercommaaccent" horiz-adv-x="193" 
d="M12 -109c0 38 32 69 79 69c53 0 90 -42 90 -92c0 -106 -83 -136 -143 -136c-2 0 -6 0 -12 1v52c56 0 85 18 88 46c-4 -2 -14 -7 -31 -7c-47 0 -71 30 -71 67z" />
    </font>
</defs>
</svg>
